<?xml version="1.0" standalone="no"?>
<!DOCTYPE svg PUBLIC "-//W3C//DTD SVG 1.1//EN" "http://www.w3.org/Graphics/SVG/1.1/DTD/svg11.dtd" >
<svg>
<metadata>
Created by FontForge 20090914 at Tue Feb  5 10:07:33 2019
 By www-data
Copyright 2017-2019 The Inter project authors
</metadata>
<defs>
<font id="Inter-Medium" horiz-adv-x="0" >
  <font-face 
    font-family="Inter Medium"
    font-weight="500"
    font-stretch="normal"
    units-per-em="2816"
    panose-1="2 11 6 2 3 0 0 0 0 4"
    ascent="2252"
    descent="-564"
    x-height="1536"
    cap-height="2048"
    bbox="-2131 -1106 4650 3072"
    underline-thickness="218"
    underline-position="-345"
    unicode-range="U+0020-U+1F16B"
  />
<missing-glyph horiz-adv-x="2852" 
d="M262 -640v512h2328v-512h-2328zM262 64v512h2328v-512h-2328zM262 768v512h2328v-512h-2328zM262 1472v512h2328v-512h-2328zM262 2176v512h2328v-512h-2328z" />
    <glyph glyph-name=".notdef" horiz-adv-x="2852" 
d="M262 -640v512h2328v-512h-2328zM262 64v512h2328v-512h-2328zM262 768v512h2328v-512h-2328zM262 1472v512h2328v-512h-2328zM262 2176v512h2328v-512h-2328z" />
    <glyph glyph-name="uni0020" unicode=" " horiz-adv-x="746" 
 />
    <glyph glyph-name="uni0021" unicode="!" horiz-adv-x="827" 
d="M578 2048l-26 -1459h-277l-26 1459h329zM413 -19c-54.667 0 -101.667 19.5 -141 58.5s-59 86.167 -59 141.5c0 54.667 19.667 101.5 59 140.5s86.333 58.5 141 58.5s101.667 -19.5 141 -58.5s59 -85.833 59 -140.5c0 -55.333 -19.667 -102.5 -59 -141.5
s-86.333 -58.5 -141 -58.5z" />
    <glyph glyph-name="uni0022" unicode="&#x22;" horiz-adv-x="1126" 
d="M428 2048v-729h-248v729h248zM942 2048v-729h-248v729h248z" />
    <glyph glyph-name="uni0023" unicode="#" horiz-adv-x="1794" 
d="M969 0l90 548h-480l-90 -548h-240l90 548h-297l39 240h297l78 472h-295l39 240h295l90 548h240l-90 -548h480l90 548h240l-90 -548h297l-39 -240h-297l-78 -472h295l-39 -240h-295l-90 -548h-240zM618 788h480l78 472h-480z" />
    <glyph glyph-name="uni0024" unicode="$" horiz-adv-x="1812" 
d="M814 -256l0.99707 225c-202 15.333 -362 75.666 -480 180.999s-181.667 244 -191 416h310c8 -96.667 45.833 -171.667 113.5 -225s150.5 -86 248.5 -98l2 681l-86 23c-164.667 44.667 -294.667 110.334 -390 197.001s-143 201.334 -143 344.001
c0 107.333 27 202.666 81 285.999s127.833 150.666 221.5 201.999s200.167 83 319.5 95l1 233h188l-1 -231c123.333 -10 231.833 -40.333 325.5 -91s167.334 -116.5 221.001 -197.5s81.834 -172.5 84.501 -274.5h-298c-9.33301 82 -44 148.167 -104 198.5
s-136.667 81.833 -230 94.5l-2 -642l73 -19c65.333 -16 132.333 -37.833 201 -65.5s132.334 -63.667 191.001 -108s106.167 -99.5 142.5 -165.5s54.5 -145 54.5 -237c0 -162 -58 -298.167 -174 -408.5s-279.667 -173.166 -491 -188.499l-1 -225h-188zM1004 243
c106 14 192.167 49.999 258.5 107.999s99.5 130.667 99.5 218c0 86.667 -34 151.834 -102 195.501s-152.667 79.5 -254 107.5zM818.997 1211l1 591c-97.333 -14.667 -173.833 -48.834 -229.5 -102.501s-83.5 -118.167 -83.5 -193.5c0 -57.333 15.667 -105.166 47 -143.499
s70.833 -69.5 118.5 -93.5s96.5 -43.333 146.5 -58z" />
    <glyph glyph-name="uni0025" unicode="%" horiz-adv-x="2332" 
d="M1266 384v108.002c0.666992 77.333 17.167 148.166 49.5 212.499s79.5 116 141.5 155s137.333 58.5 226 58.5c90.667 0 166.834 -19.333 228.501 -58s108.167 -90.334 139.5 -155.001s47 -135.667 47 -213v-108c0 -76.667 -16 -147.334 -48 -212.001
s-78.833 -116.5 -140.5 -155.5s-137.167 -58.5 -226.5 -58.5c-90 0 -166 19.5 -228 58.5s-108.833 90.833 -140.5 155.5s-47.834 135.334 -48.501 212.001zM236 1556v108c0 77.333 16.333 148.333 49 213s80 116.334 142 155.001s137.333 58 226 58
c90.667 0 166.667 -19.333 228 -58s107.833 -90.334 139.5 -155.001s47.167 -135.667 46.5 -213v-108c0.666992 -77.333 -15 -148.333 -47 -213s-78.833 -116.334 -140.5 -155.001s-137.167 -58 -226.5 -58c-90 0 -166 19.5 -228 58.5s-109 90.833 -141 155.5
s-48 135.334 -48 212.001zM320 0.00195312l1408 2048h239l-1408 -2048h-239zM1499 492.002l0.00195312 -108c0.666992 -56.667 14.5 -108.5 41.5 -155.5s74.5 -70.5 142.5 -70.5c67.333 0 114.333 23.333 141 70s40 98.667 40 156v108c0 57.333 -12.833 109.333 -38.5 156
s-73.167 70 -142.5 70c-66.667 0 -113.834 -23.333 -141.501 -70s-41.834 -98.667 -42.501 -156zM470.002 1664l0.000976562 -108c0 -57.333 13.5 -109.333 40.5 -156s74.5 -70 142.5 -70c67.333 0 114.333 23.333 141 70s40 98.667 40 156v108
c0 57.333 -12.833 109.333 -38.5 156s-73.167 70 -142.5 70c-66.667 0 -113.834 -23.333 -141.501 -70s-41.5 -98.667 -41.5 -156z" />
    <glyph glyph-name="uni0026" unicode="&#x26;" horiz-adv-x="1833" 
d="M797 -29c-137.333 0 -255.501 24.8301 -354.501 74.4971s-175.167 117.834 -228.5 204.501s-80 184.667 -80 294c0 122 36.333 225.167 109 309.5s167.334 166.833 284.001 247.5c-64.667 78.667 -118.334 156.334 -161.001 233.001s-64 160.667 -64 252
c0 94.667 21.5 178.334 64.5 251.001s103.167 129.667 180.5 171s168 62 272 62c105.333 0 195.833 -20.5 271.5 -61.5s134 -95.333 175 -163s61.5 -141.5 61.5 -221.5c0 -97.333 -24 -183.166 -72 -257.499s-114.667 -142.5 -200 -204.5l-140 -103l410 -490
c26.667 51.333 47.5 107.166 62.5 167.499s22.5 124.833 22.5 193.5h270c0 -142 -17.5 -260 -52.5 -354s-74.167 -170 -117.5 -228l291 -348h-338l-138 162c-69.333 -64.667 -151.666 -112.667 -246.999 -144s-189 -47 -281 -47zM1157 359.997l-459 538.999l-54 -40
c-80 -58.667 -135.5 -116.667 -166.5 -174s-46.5 -101.666 -46.5 -132.999c0 -88.667 33.5 -165.5 100.5 -230.5s155.833 -97.5 266.5 -97.5c130 0 249.667 45.333 359 136zM749.999 1258l125.999 89c55.333 36.667 98.833 75.5 130.5 116.5s47.5 91.833 47.5 152.5
c0 48 -20.667 94 -62 138s-96.666 66 -165.999 66c-72 0 -130.333 -25 -175 -75s-67 -104.667 -67 -164c0 -52 16 -104.5 48 -157.5s71.333 -108.167 118 -165.5z" />
    <glyph glyph-name="uni0027" unicode="'" horiz-adv-x="612" 
d="M428 2048v-729h-248v729h248z" />
    <glyph glyph-name="uni0028" unicode="(" horiz-adv-x="1064" 
d="M288 850c0 250.667 33 481.333 99 692s162.333 405 289 583h274c-65.333 -88 -124.666 -201.667 -177.999 -341s-95.666 -290.166 -126.999 -452.499s-47 -322.833 -47 -481.5s15.667 -319.334 47 -482.001s73.666 -313.667 126.999 -453s112.666 -253 177.999 -341h-274
c-126.667 178 -223 372.5 -289 583.5s-99 441.833 -99 692.5z" />
    <glyph glyph-name="uni0029" unicode=")" horiz-adv-x="1064" 
d="M776 849c0 -250.667 -33 -481.333 -99 -692s-162.333 -405 -289 -583h-274c65.333 88 124.666 201.667 177.999 341s95.666 290.166 126.999 452.499s47 322.833 47 481.5s-15.667 319.334 -47 482.001s-73.666 313.667 -126.999 453s-112.666 253 -177.999 341h274
c126.667 -178 223 -372.5 289 -583.5s99 -441.833 99 -692.5z" />
    <glyph glyph-name="uni002A" unicode="*" horiz-adv-x="1469" 
d="M626 896l19 422l-356 -229l-109 190l378 193l-378 193l109 190l356 -229l-19 422h217l-19 -422l356 229l109 -190l-378 -193l378 -193l-109 -190l-356 229l19 -422h-217z" />
    <glyph glyph-name="uni002B" unicode="+" horiz-adv-x="1837" 
d="M784 150v525h-526v269h526v526h269v-526h525v-269h-525v-525h-269z" />
    <glyph glyph-name="uni002C" unicode="," horiz-adv-x="810" 
d="M590 280l-15.001 -109c-10 -80 -26.667 -163.5 -50 -250.5s-47.666 -167.833 -72.999 -242.5l-62 -178h-212l36.5 167.5c15 70.333 29.833 148.833 44.5 235.5s25.667 175 33 265l10 112h288z" />
    <glyph glyph-name="uni002D" unicode="-" horiz-adv-x="1304" 
d="M1106 995v-259h-908v259h908z" />
    <glyph glyph-name="uni002E" unicode="." horiz-adv-x="797" 
d="M398 -19c-54.667 0 -101.667 19.5 -141 58.5s-59 86.167 -59 141.5c0 54.667 19.667 101.5 59 140.5s86.333 58.5 141 58.5s101.667 -19.5 141 -58.5s59 -85.833 59 -140.5c0 -55.333 -19.667 -102.5 -59 -141.5s-86.333 -58.5 -141 -58.5z" />
    <glyph glyph-name="uni002F" unicode="/" horiz-adv-x="1035" 
d="M981 2144l-660 -2452h-267l660 2452h267z" />
    <glyph glyph-name="uni0030" unicode="0" horiz-adv-x="1819" 
d="M910 -34c-236.667 0.666992 -421.002 93.332 -553.002 277.999s-198 444.334 -198 779.001c0.666992 333.333 67.334 592.166 200.001 776.499s316.334 276.5 551.001 276.5s418.334 -92.167 551.001 -276.5s199 -443.166 199 -776.499
c0 -335.333 -65.833 -595.333 -197.5 -780s-315.834 -277 -552.501 -277zM909.998 232.998c138 0 246.333 67.667 325 203s118 331 118 587c0 255.333 -39.5 451 -118.5 587s-187.167 204 -324.5 204c-138 0 -246.333 -68 -325 -204s-118.334 -331.667 -119.001 -587
c0 -256 39.333 -451.667 118 -587s187.334 -203 326.001 -203z" />
    <glyph glyph-name="uni0031" unicode="1" horiz-adv-x="1274" 
d="M917 2048v-2048h-310v1631h-17c-16.667 -30 -63 -62.833 -139 -98.5s-172 -53.5 -288 -53.5v254c74.667 0 140.5 13.333 197.5 40s104.833 58.834 143.5 96.501s68.5 73.334 89.5 107.001s32.833 57.5 35.5 71.5h288z" />
    <glyph glyph-name="uni0032" unicode="2" horiz-adv-x="1727" 
d="M197 0l0.00195312 224l693 718c73.333 78 134.333 146.5 183 205.5s85 115.167 109 168.5s36 110 36 170c0 102 -35 182.833 -105 242.5s-157 89.5 -261 89.5c-110.667 0 -198.834 -33.167 -264.501 -99.5s-98.167 -154.5 -97.5 -264.5h-295
c0 124.667 28.667 233.667 86 327s136 165.833 236 217.5s213.667 77.5 341 77.5c128.667 0 242.167 -25.5 340.5 -76.5s175.166 -120.333 230.499 -208s83 -186.5 83 -296.5c0 -76 -14.167 -150.333 -42.5 -223s-77.333 -153.5 -147 -242.5
s-167.167 -196.833 -292.5 -323.5l-407 -426v-15h922v-265h-1348z" />
    <glyph glyph-name="uni0033" unicode="3" horiz-adv-x="1814" 
d="M910 -28c-138 0 -260.67 23.667 -368.003 71s-192.166 113.166 -254.499 197.499s-95.833 182.166 -100.5 293.499h314c6 -90.667 47.667 -162.667 125 -216s171.333 -80 282 -80c120.667 0 219.834 30.833 297.501 92.5s116.5 142.167 116.5 241.5
c0 103.333 -39.167 187.5 -117.5 252.5s-188.5 97.5 -330.5 97.5h-173v252h173c113.333 0 206 30 278 90s107.667 139.333 107 238c0.666992 94.667 -30.5 171 -93.5 229s-146.833 87 -251.5 87c-100.667 0 -189.167 -26.833 -265.5 -80.5s-116.166 -127.5 -119.499 -221.5
h-299c3.33301 111.333 36.166 209 98.499 293s144.833 149.5 247.5 196.5s216.667 70.5 342 70.5c131.333 0 245 -25.667 341 -77s170 -119.166 222 -203.499s77.667 -176.833 77 -277.5c0.666992 -114.667 -31 -212 -95 -292s-149.667 -133.667 -257 -161v-16
c136 -20.667 241.5 -74.667 316.5 -162s112.167 -195.666 111.5 -324.999c0.666992 -113.333 -30.333 -214.5 -93 -303.5s-148.667 -159 -258 -210s-233.666 -76.5 -372.999 -76.5z" />
    <glyph glyph-name="uni0034" unicode="4" horiz-adv-x="1842" 
d="M154 400v250l885 1398h381v-1386h271v-262h-271v-400h-295v400h-971zM1127 662v1018h-16l-633 -1002v-16h649z" />
    <glyph glyph-name="uni0035" unicode="5" horiz-adv-x="1746" 
d="M873 -28c-125.333 0 -237.835 24.165 -337.502 72.498s-179.167 114.833 -238.5 199.5s-91 181.334 -95 290.001h300c8 -88 47.167 -160.333 117.5 -217s154.833 -85 253.5 -85c78.667 0 148.5 18.167 209.5 54.5s109 86.5 144 150.5s52.5 137 52.5 219
c0 83.333 -18 157.5 -54 222.5s-85.5 116.333 -148.5 154s-135.167 56.834 -216.5 57.501c-62 0 -124.333 -10.667 -187 -32s-113.334 -49.333 -152.001 -84l-283 42l115 1032h1126v-265h-869l-65 -573h12c40 39.333 93.167 71.833 159.5 97.5s137.5 38.5 213.5 38.5
c124.667 0 235.834 -29.5 333.501 -88.5s174.667 -140 231 -243s84.166 -220.5 83.499 -352.5c0.666992 -132.667 -29.166 -251 -89.499 -355s-143.666 -185.833 -249.999 -245.5s-228.166 -89.5 -365.499 -89.5z" />
    <glyph glyph-name="uni0036" unicode="6" horiz-adv-x="1790" 
d="M912 -28c-90.667 0.666992 -180.333 17.1689 -269 49.502s-169 85.833 -241 160.5s-129.5 175 -172.5 301s-64.5 283.333 -64.5 472c0 239.333 31.333 442.833 94 610.5s151.834 295.5 267.501 383.5s252.834 132 411.501 132c122 0 230.333 -24.167 325 -72.5
s171.667 -115 231 -200s96.666 -182.5 111.999 -292.5h-305c-20.667 87.333 -61.667 158.166 -123 212.499s-141.333 81.5 -240 81.5c-150 0 -266.833 -65.333 -350.5 -196s-125.834 -313.667 -126.501 -549h15c52.667 86.667 123.5 154.5 212.5 203.5
s187.5 73.5 295.5 73.5c118.667 0 226.334 -28.833 323.001 -86.5s173.667 -137.167 231 -238.5s85.666 -217.333 84.999 -348c0.666992 -130.667 -28.666 -249 -87.999 -355s-142.333 -189.833 -249 -251.5s-231.334 -91.834 -374.001 -90.501zM911.001 232.002
c78 0 148.168 19.334 210.501 58.001s111.666 90.667 147.999 156s54.166 138.333 53.499 219c0.666992 79.333 -16.666 151.166 -51.999 215.499s-83.5 115.5 -144.5 153.5s-130.5 57 -208.5 57c-78.667 0 -149.5 -19.833 -212.5 -59.5s-113 -92 -150 -157
s-55.833 -135.833 -56.5 -212.5c0 -76.667 17.833 -147.667 53.5 -213s84.5 -117.833 146.5 -157.5s132.667 -59.5 212 -59.5z" />
    <glyph glyph-name="uni0037" unicode="7" horiz-adv-x="1630" 
d="M266 0l894 1768v15h-1034v265h1354v-274l-891 -1774h-323z" />
    <glyph glyph-name="uni0038" unicode="8" horiz-adv-x="1778" 
d="M889 -28c-143.333 0 -269.834 24.834 -379.501 74.501s-195.5 117.667 -257.5 204s-92.667 184.833 -92 295.5c-0.666992 86 17.166 165.5 53.499 238.5s85.833 134.167 148.5 183.5s132.667 80.666 210 93.999v12c-101.333 24 -182.833 78.5 -244.5 163.5
s-92.167 182.5 -91.5 292.5c-0.666992 104.667 27.166 198 83.499 280s133.833 146.833 232.5 194.5s211 71.5 337 71.5c125.333 0 237 -23.833 335 -71.5s175.333 -112.5 232 -194.5s85.334 -175.333 86.001 -280c-0.666992 -110.667 -32 -208.334 -94 -293.001
s-142.667 -139 -242 -163v-12c76.667 -13.333 146 -44.666 208 -93.999s111.333 -110.5 148 -183.5s55.334 -152.5 56.001 -238.5c-0.666992 -110.667 -32.167 -209.167 -94.5 -295.5s-148.166 -154.333 -257.499 -204s-235 -74.5 -377 -74.5zM888.999 225.001
c126.667 0 227.502 31.167 302.502 93.5s112.833 144.833 113.5 247.5c-0.666992 106.667 -40.334 194.167 -119.001 262.5s-177.667 102.5 -297 102.5c-120.667 0 -220.334 -34.167 -299.001 -102.5s-117.667 -155.833 -117 -262.5
c-0.666992 -102.667 36.5 -185.167 111.5 -247.5s176.5 -93.5 304.5 -93.5zM889.001 1178c102 0 186 30 252 90s99.333 138.667 100 236c-0.666992 96 -33.5 173.167 -98.5 231.5s-149.5 87.5 -253.5 87.5c-106 0 -191.333 -29.167 -256 -87.5s-96.667 -135.5 -96 -231.5
c-0.666992 -97.333 32 -176 98 -236s150.667 -90 254 -90z" />
    <glyph glyph-name="uni0039" unicode="9" horiz-adv-x="1790" 
d="M878 2081c91.333 -0.666992 181.17 -17.168 269.503 -49.501s168.666 -85.833 240.999 -160.5s130 -175.167 173 -301.5s64.5 -283.5 64.5 -471.5c0 -238.667 -31.5 -442 -94.5 -610s-152.333 -296 -268 -384s-252.834 -132 -411.501 -132
c-122 0 -230.333 24.167 -325 72.5s-171.5 115 -230.5 200s-96.167 182.5 -111.5 292.5h305c20 -87.333 60.833 -158.333 122.5 -213s141.5 -82 239.5 -82c150 0 267 65.5 351 196.5s126.333 314.167 127 549.5h-16c-52.667 -86 -123.334 -153.833 -212.001 -203.5
s-187.334 -74.5 -296.001 -74.5c-118 0 -225.333 29 -322 87s-173.667 137.667 -231 239s-86 217.333 -86 348s29.333 248.834 88 354.501s141.334 189.5 248.001 251.5s231.667 92.333 375 91zM879.004 1821c-78 0 -148.167 -19.334 -210.5 -58.001
s-111.5 -90.667 -147.5 -156s-54 -138.333 -54 -219c0 -79.333 17.5 -151.166 52.5 -215.499s83.167 -115.5 144.5 -153.5s131 -57 209 -57s148.667 19.833 212 59.5s113.5 92.167 150.5 157.5s55.5 136 55.5 212c0 76.667 -17.833 147.5 -53.5 212.5
s-84.5 117.5 -146.5 157.5s-132.667 60 -212 60z" />
    <glyph glyph-name="uni003A" unicode=":" horiz-adv-x="797" 
d="M398 -19c-54.667 0 -101.667 19.5 -141 58.5s-59 86.167 -59 141.5c0 54.667 19.667 101.5 59 140.5s86.333 58.5 141 58.5s101.667 -19.5 141 -58.5s59 -85.833 59 -140.5c0 -55.333 -19.667 -102.5 -59 -141.5s-86.333 -58.5 -141 -58.5zM398 1099
c-54.667 0 -101.667 19.5 -141 58.5s-59 86.167 -59 141.5c0 54.667 19.667 101.5 59 140.5s86.333 58.5 141 58.5s101.667 -19.5 141 -58.5s59 -85.833 59 -140.5c0 -55.333 -19.667 -102.5 -59 -141.5s-86.333 -58.5 -141 -58.5z" />
    <glyph glyph-name="uni003B" unicode=";" horiz-adv-x="808" 
d="M590 280l-15.001 -109c-10 -80 -26.667 -163.5 -50 -250.5s-47.666 -167.833 -72.999 -242.5l-62 -178h-212l36.5 167.5c15 70.333 29.833 148.833 44.5 235.5s25.667 175 33 265l10 112h288zM433.999 1099c-54.667 0 -101.667 19.5 -141 58.5s-59 86.167 -59 141.5
c0 54.667 19.667 101.5 59 140.5s86.333 58.5 141 58.5s101.667 -19.5 141 -58.5s59 -85.833 59 -140.5c0 -55.333 -19.667 -102.5 -59 -141.5s-86.333 -58.5 -141 -58.5z" />
    <glyph glyph-name="uni003C" unicode="&#x3c;" horiz-adv-x="1837" 
d="M254 694v224l1328 644v-305l-970 -442v-18l970 -441v-306z" />
    <glyph glyph-name="uni003D" unicode="=" horiz-adv-x="1837" 
d="M310 367v263h1217v-263h-1217zM310 983v263h1217v-263h-1217z" />
    <glyph glyph-name="uni003E" unicode="&#x3e;" horiz-adv-x="1837" 
d="M1582 694l-1328 -644v306l971 442v16l-971 443v305l1328 -644v-224z" />
    <glyph glyph-name="uni003F" unicode="?" horiz-adv-x="1480" 
d="M528 589l-0.000976562 19.0029c0.666992 124 12.834 222.667 36.501 296s57.667 132.5 102 177.5s97.5 86.5 159.5 124.5c59.333 37.333 109.5 82.666 150.5 135.999s61.5 117.333 61.5 192c0 88.667 -30 159.167 -90 211.5s-132.667 78.5 -218 78.5
c-76.667 0 -147 -24.333 -211 -73s-99 -126 -105 -232h-304c4.66699 120 35 221.5 91 304.5s130.167 145.833 222.5 188.5s194.5 64 306.5 64c122.667 0 229.834 -22.833 321.501 -68.5s163.167 -109.334 214.5 -191.001s77 -176.834 77 -285.501
c0 -112.667 -25.833 -208.167 -77.5 -286.5s-122.167 -144.5 -211.5 -198.5c-84.667 -52.667 -145.334 -110 -182.001 -172s-56 -150.667 -58 -266v-19h-286zM678.999 -18.9971c-54.667 0 -101.667 19.5 -141 58.5s-59 86.167 -59 141.5c0 54.667 19.667 101.5 59 140.5
s86.333 58.5 141 58.5s101.667 -19.5 141 -58.5s59 -85.833 59 -140.5c0 -55.333 -19.667 -102.5 -59 -141.5s-86.333 -58.5 -141 -58.5z" />
    <glyph glyph-name="uni0040" unicode="@" horiz-adv-x="2725" 
d="M1420 1994c191.333 0 359.996 -29.9961 505.996 -89.9961s268.833 -142.333 368.5 -247s174.834 -224.667 225.5 -360c50.667 -135.333 76 -278.333 76 -429c0 -105.333 -6.66699 -208.166 -20 -308.499s-38 -190.833 -74 -271.5s-87.333 -145.334 -154 -194.001
s-153.334 -74 -260.001 -76c-56.667 -2 -111.834 4.66699 -165.501 20s-99 40.166 -136 74.499s-59.5 78.166 -67.5 131.499h-12c-23.333 -58.667 -71.166 -110.167 -143.499 -154.5s-165.5 -64.166 -279.5 -59.499c-168.667 6.66699 -302 73.5 -400 200.5
s-147 293.167 -147 498.5c0 131.333 24.667 244.833 74 340.5s114.833 171.167 196.5 226.5s170.5 88.666 266.5 99.999c104.667 12.667 196 3.16699 274 -28.5s124.333 -69.5 139 -113.5h13v112h246v-928c0 -52.667 13.833 -97.334 41.5 -134.001s67.167 -55 118.501 -55
c91.333 0 153.833 50.667 187.5 152s50.167 260.333 49.5 477c0.666992 169.333 -36.166 320.666 -110.5 453.999c-74.333 133.333 -181.166 238.333 -320.5 315c-139.333 76.667 -306.666 115 -501.999 115c-213.333 0 -394.166 -43 -542.499 -129
s-261.166 -207.5 -338.499 -364.5s-116 -341.5 -116 -553.5c0 -332 88.167 -587.5 264.5 -766.5s432.833 -268.5 769.5 -268.5c74.667 0 148 6.5 220 19.5s136.167 27.667 192.5 44s98.5 29.5 126.5 39.5l70 -219c-41.333 -19.333 -96 -38.333 -164 -57s-142 -34 -222 -46
s-158.667 -18 -236 -18c-413.333 0 -731 111 -953 333s-333.333 535.667 -334 941c0.666992 262.667 51.334 489.5 152.001 680.5s246 338.167 436 441.5s418.333 155 685 155zM1346 1154c-112.667 0 -199.998 -40 -261.998 -120s-93.333 -177.667 -94 -293
c0.666992 -80.667 12.167 -156.5 34.5 -227.5s59.166 -128.5 110.499 -172.5s120.333 -66 207 -66c130 0 222.667 38.833 278 116.5s82.666 194.5 81.999 350.5c-0.666992 152 -29.5 258.667 -86.5 320s-146.833 92 -269.5 92z" />
    <glyph glyph-name="uni0041" unicode="A" horiz-adv-x="1971" 
d="M398 0h-328l737 2048h357l737 -2048h-328l-187 542h-800zM676 802h620l-302 874h-16z" />
    <glyph glyph-name="uni0042" unicode="B" horiz-adv-x="1842" 
d="M225 0v2048h750c145.333 0 265.833 -23.833 361.5 -71.5s167 -112 214 -193s70.5 -172.167 70.5 -273.5c0 -128 -34 -226 -102 -294s-149 -114 -243 -138v-20c68 -3.33301 134.5 -25.166 199.5 -65.499s118.833 -97.5 161.5 -171.5s64 -164 64 -270
c0 -104.667 -24.5 -198.5 -73.5 -281.5s-124.5 -148.667 -226.5 -197s-232.333 -72.5 -391 -72.5h-785zM534 264.999h445.999c148.667 0 254.834 28.667 318.501 86s95.5 129 95.5 215c0 97.333 -36.167 180.833 -108.5 250.5s-170.5 104.5 -294.5 104.5h-457v-656z
M533.999 1162l414 -0.000976562c104 0 191.667 29.333 263 88s107 137.334 107 236.001c0 85.333 -29.667 156.5 -89 213.5s-150.333 85.5 -273 85.5h-422v-623z" />
    <glyph glyph-name="uni0043" unicode="C" horiz-adv-x="2071" 
d="M1926 1382l-312 0.00195312c-25.333 132.667 -87.5 234.5 -186.5 305.5s-213.833 106.5 -344.5 106.5c-117.333 0 -222.666 -29.667 -315.999 -89s-166.833 -146.166 -220.5 -260.499s-80.5 -254.5 -80.5 -420.5c0 -166.667 27 -307.334 81 -422.001
s127.5 -201.334 220.5 -260.001s197.833 -88 314.5 -88c129.333 0 243.666 35 342.999 105s162.333 170.333 189 301l312 -1c-22 -134.667 -71.333 -253.667 -148 -357s-174.667 -184.166 -294 -242.499s-254 -87.5 -404 -87.5c-177.333 0 -335.333 42.167 -474 126.5
s-247.834 205.166 -327.501 362.499s-119.5 345 -119.5 563c0 218.667 40 406.5 120 563.5s189.333 277.667 328 362s296.334 126.5 473.001 126.5c144.667 0 276.5 -27.333 395.5 -82s218 -133.834 297 -237.501s130.167 -228.5 153.5 -374.5z" />
    <glyph glyph-name="uni0044" unicode="D" horiz-adv-x="2032" 
d="M888 0l-663 -0.00195312v2048h684c201.333 0 373.833 -40.833 517.5 -122.5s254 -198.667 331 -351s115.5 -334.833 115.5 -547.5c0 -213.333 -38.667 -396.666 -116 -549.999s-189.5 -271.166 -336.5 -353.499s-324.5 -123.5 -532.5 -123.5zM534 269.998h337
c233.333 0 408 65.5 524 196.5s174 317.833 174 560.5c0 241.333 -57.167 426.833 -171.5 556.5s-283.5 194.5 -507.5 194.5h-356v-1508z" />
    <glyph glyph-name="uni0045" unicode="E" horiz-adv-x="1698" 
d="M225 0v2048h1284v-266h-975v-624h908v-265h-908v-627h987v-266h-1296z" />
    <glyph glyph-name="uni0046" unicode="F" horiz-adv-x="1650" 
d="M225 0v2048h1270v-266h-961v-624h870v-265h-870v-893h-309z" />
    <glyph glyph-name="uni0047" unicode="G" horiz-adv-x="2109" 
d="M1611 1401c-38.667 121.333 -103.166 217.164 -193.499 287.497s-203.5 105.5 -339.5 105.5c-115.333 0 -219.333 -29.667 -312 -89s-165.834 -146.166 -219.501 -260.499s-80.5 -254.166 -80.5 -419.499c0 -166 27 -306.333 81 -421s128 -201.667 222 -261
s201 -89 321 -89c164 0 296.333 48.5 397 145.5s152.667 228.167 156 393.5h-506v255h805v-233c0 -172 -36.5 -321.167 -109.5 -447.5s-173.5 -223.833 -301.5 -292.5s-275 -103 -441 -103c-184.667 0 -347 42.5 -487 127.5s-249 206.167 -327 363.5s-117 344 -117 560
c0 218 39.667 405.667 119 563s188 278.333 326 363s295.333 127 472 127c147.333 0 281 -28.5 401 -85.5s219.5 -136.167 298.5 -237.5s129.833 -218.666 152.5 -351.999h-317z" />
    <glyph glyph-name="uni0048" unicode="H" horiz-adv-x="2090" 
d="M225 0v2048h309v-890h1021v890h310v-2048h-310v893h-1021v-893h-309z" />
    <glyph glyph-name="uni0049" unicode="I" horiz-adv-x="759" 
d="M534 2048v-2048h-309v2048h309z" />
    <glyph glyph-name="uni004A" unicode="J" horiz-adv-x="1554" 
d="M1021 2048l308 0.00195312v-1452c-0.666992 -196.667 -57.667 -349.834 -171 -459.501s-264 -164.5 -452 -164.5c-115.333 0 -218.833 21 -310.5 63s-164 103.167 -217 183.5s-79.5 178.166 -79.5 293.499h307c0.666992 -84.667 29.5 -152.167 86.5 -202.5
s130.833 -75.5 221.5 -75.5c98 0 173.5 30.833 226.5 92.5s79.833 151.5 80.5 269.5v1452z" />
    <glyph glyph-name="uni004B" unicode="K" horiz-adv-x="1871" 
d="M225 0v2048h309v-978h25l859 978h389l-826 -922l829 -1126h-372l-662 915l-242 -278v-637h-309z" />
    <glyph glyph-name="uni004C" unicode="L" horiz-adv-x="1589" 
d="M225 0v2048h309v-1782h928v-266h-1237z" />
    <glyph glyph-name="uni004D" unicode="M" horiz-adv-x="2579" 
d="M225 2048h375l652 -1592h24l652 1592h375v-2048h-294v1482h-19l-604 -1479h-244l-604 1480h-19v-1483h-294v2048z" />
    <glyph glyph-name="uni004E" unicode="N" horiz-adv-x="2103" 
d="M1878 2048v-2048h-284l-1041 1502h-19v-1502h-309v2048h286l1042 -1504h19v1504h306z" />
    <glyph glyph-name="uni004F" unicode="O" horiz-adv-x="2163" 
d="M2004 1024c0 -218 -40 -405.667 -120 -563s-189.5 -278.166 -328.5 -362.499s-296.833 -126.5 -473.5 -126.5c-177.333 0 -335.5 42.167 -474.5 126.5s-248.5 205.166 -328.5 362.499s-120 345 -120 563c0 218.667 40 406.5 120 563.5s189.5 277.667 328.5 362
s297.167 126.5 474.5 126.5c176.667 0 334.5 -42.167 473.5 -126.5s248.5 -205 328.5 -362s120 -344.833 120 -563.5zM1698 1024c0 166.667 -26.833 307.167 -80.5 421.5s-127 201 -220 260s-198.167 88.5 -315.5 88.5s-222.5 -29.5 -315.5 -88.5
s-166.333 -145.667 -220 -260s-80.5 -254.833 -80.5 -421.5c0 -166 26.833 -306.333 80.5 -421s127 -201.5 220 -260.5s198.167 -88.5 315.5 -88.5s222.5 29.5 315.5 88.5s166.333 145.833 220 260.5s80.5 255 80.5 421z" />
    <glyph glyph-name="uni0050" unicode="P" horiz-adv-x="1800" 
d="M225 0v2048h730c158.667 0 290.5 -29 395.5 -87s183.5 -137 235.5 -237s78 -213 78 -339s-26.167 -239.167 -78.5 -339.5s-131 -179.666 -236 -237.999s-236.833 -87.5 -395.5 -87.5h-420v-720h-309zM534 981.999h392c151.333 0 260.333 38.167 327 114.5
s100 172.5 100 288.5s-33.5 211.333 -100.5 286s-177.167 112 -330.5 112h-388v-801z" />
    <glyph glyph-name="uni0051" unicode="Q" horiz-adv-x="2164" 
d="M2004 1024c0 -188.667 -30.5 -354.832 -91.5 -498.499s-144.5 -260.167 -250.5 -349.5l276 -360h-316l-175 227c-112 -47.333 -233.667 -71 -365 -71c-177.333 0 -335.5 42.167 -474.5 126.5s-248.5 205.166 -328.5 362.499s-120 345 -120 563
c0 218.667 40 406.5 120 563.5s189.5 277.667 328.5 362s297.167 126.5 474.5 126.5c176.667 0 334.5 -42.167 473.5 -126.5s248.5 -205 328.5 -362s120 -344.833 120 -563.5zM978 664.002h304l197 -257c68 64 121.5 147.833 160.5 251.5s58.5 225.5 58.5 365.5
c0 166.667 -26.833 307.167 -80.5 421.5s-127 201 -220 260s-198.167 88.5 -315.5 88.5s-222.5 -29.5 -315.5 -88.5s-166.333 -145.667 -220 -260s-80.5 -254.833 -80.5 -421.5c0 -166 26.833 -306.333 80.5 -421s127 -201.5 220 -260.5s198.167 -88.5 315.5 -88.5
c66 0 128.333 9.33301 187 28z" />
    <glyph glyph-name="uni0052" unicode="R" horiz-adv-x="1816" 
d="M225 0l-0.000976562 2048h730c158.667 0 290.334 -27.333 395.001 -82s183.167 -130.167 235.5 -226.5s78.5 -207.5 78.5 -333.5c0 -137.333 -31.167 -256.166 -93.5 -356.499s-156.5 -173.833 -282.5 -220.5l454 -829h-352l-416 775h-20h-420v-775h-309zM533.999 1041
h392c150.667 0 259.5 32 326.5 96s100.5 153.667 100.5 269c0 116 -33.667 207.833 -101 275.5s-177.333 101.5 -330 101.5h-388v-742z" />
    <glyph glyph-name="uni0053" unicode="S" horiz-adv-x="1812" 
d="M1342 1510c-10.667 94.667 -54.6689 168.165 -132.002 220.498s-174.666 78.5 -291.999 78.5c-126 0 -226 -28.667 -300 -86s-111 -129.666 -111 -216.999c0 -65.333 19.833 -118.5 59.5 -159.5s88.334 -73.167 146.001 -96.5s113.167 -42 166.5 -56l200 -52
c65.333 -16 132.333 -37.833 201 -65.5s132.334 -63.667 191.001 -108s106.167 -99.5 142.5 -165.5s54.5 -145 54.5 -237c0 -115.333 -29.833 -218.333 -89.5 -309s-145.834 -161.834 -258.501 -213.501s-249.334 -77.5 -410.001 -77.5
c-229.333 0 -411.833 53.667 -547.5 161s-208.5 253.666 -218.5 438.999h310c9.33301 -111.333 57.666 -194 144.999 -248s190.333 -81 309 -81c131.333 0 239.833 30.333 325.5 91s128.5 141 128.5 241c0 60.667 -17.167 110.5 -51.5 149.5s-80.666 71 -138.999 96
s-124.166 47.167 -197.499 66.5l-242 66c-164.667 44.667 -294.667 110.334 -390 197.001s-143 201.334 -143 344.001c0 118 32 221 96 309s150.833 156.5 260.5 205.5s232.834 73.5 369.501 73.5c138.667 0 261.167 -24.333 367.5 -73s190.166 -115.667 251.499 -201
s93.333 -182.666 96 -291.999h-298z" />
    <glyph glyph-name="uni0054" unicode="T" horiz-adv-x="1833" 
d="M124 1782v266h1585v-266h-639v-1782h-308v1782h-638z" />
    <glyph glyph-name="uni0055" unicode="U" horiz-adv-x="2077" 
d="M1543 2048h309v-1355c0 -154 -36.333 -285.167 -109 -393.5s-170.5 -191 -293.5 -248s-260.167 -85.5 -411.5 -85.5c-150.667 0 -287.5 28.5 -410.5 85.5s-220.833 139.667 -293.5 248s-109 239.5 -109 393.5v1355h309v-1350c0 -95.333 23 -176.5 69 -243.5
s107.167 -117.833 183.5 -152.5s160.166 -52 251.499 -52c92 0 176.333 17.333 253 52s137.834 85.5 183.501 152.5s68.5 148.167 68.5 243.5v1350z" />
    <glyph glyph-name="uni0056" unicode="V" horiz-adv-x="1971" 
d="M404 2048l570 -1668h23l570 1668h334l-737 -2048h-357l-737 2048h334z" />
    <glyph glyph-name="uni0057" unicode="W" horiz-adv-x="2754" 
d="M626 0l-568 2048h325l399 -1586h19l415 1586h322l415 -1587h19l398 1587h326l-569 -2048h-311l-431 1534h-16l-431 -1534h-312z" />
    <glyph glyph-name="uni0058" unicode="X" horiz-adv-x="1876" 
d="M440 2048l490 -801h16l490 801h358l-638 -1024l642 -1024h-360l-492 790h-16l-492 -790h-360l653 1024l-649 1024h358z" />
    <glyph glyph-name="uni0059" unicode="Y" horiz-adv-x="1928" 
d="M67 2048h351l535 -931h22l535 931h351l-743 -1244v-804h-308v804z" />
    <glyph glyph-name="uni005A" unicode="Z" horiz-adv-x="1799" 
d="M172 0v206l1077 1576h-1086v266h1464v-206l-1077 -1576h1086v-266h-1464z" />
    <glyph glyph-name="uni005B" unicode="[" horiz-adv-x="1064" 
d="M321 -426v2551h657v-237h-371v-2077h371v-237h-657z" />
    <glyph glyph-name="uni005C" unicode="\" horiz-adv-x="1072" 
d="M94 2048h279l601 -2356h-279z" />
    <glyph glyph-name="uni005D" unicode="]" horiz-adv-x="1064" 
d="M743 2125v-2551h-657v237h371v2077h-371v237h657z" />
    <glyph glyph-name="uni005E" unicode="^" horiz-adv-x="1338" 
d="M106 1120l415 870h296l415 -870h-265l-291 634h-14l-288 -634h-268z" />
    <glyph glyph-name="uni005F" unicode="_" horiz-adv-x="1295" 
d="M1298 0v-254h-1301v254h1301z" />
    <glyph glyph-name="uni0060" unicode="`" horiz-adv-x="1400" 
d="M974 1741h-239l-309 461h315z" />
    <glyph glyph-name="uni0061" unicode="a" horiz-adv-x="1603" 
d="M648 -34c-97.333 0 -185.167 17.998 -263.5 53.998s-140.5 88.833 -186.5 158.5s-69 154.834 -69 255.501c0 87.333 16.833 159 50.5 215s78.667 100.333 135 133s119.5 57.167 189.5 73.5s141.333 28.833 214 37.5l223.5 26.5c57 7 98.667 18.5 125 34.5
s39.5 42 39.5 78v7c0 87.333 -24.5 155 -73.5 203s-121.833 72 -218.5 72c-100.667 0 -179.834 -22 -237.501 -66s-97.5 -93.333 -119.5 -148l-281 64c50 140 133.5 240.333 250.5 301s244.833 91 383.5 91c61.333 0 126.333 -7.16699 195 -21.5
s133.5 -40.666 194.5 -78.999s110.667 -92.5 149 -162.5s57.5 -161 57.5 -273v-1020h-292v210h-12c-28.667 -57.333 -79.667 -112.333 -153 -165s-173.666 -79 -300.999 -79zM712.999 205.998c83.333 0 154.333 16.332 213 48.999s103.5 75.5 134.5 128.5
s46.5 109.833 46.5 170.5v198c-14 -14 -44.667 -26.333 -92 -37s-97.333 -19.667 -150 -27l-128 -18c-86.667 -11.333 -160.834 -34.166 -222.501 -68.499s-92.5 -91.5 -92.5 -171.5c0 -74 27.333 -129.833 82 -167.5s124.334 -56.5 209.001 -56.5z" />
    <glyph glyph-name="uni0062" unicode="b" horiz-adv-x="1762" 
d="M225 0l0.00195312 2048h299v-761h18c18 32 43.167 69 75.5 111s77.666 78.833 135.999 110.5s134.833 47.5 229.5 47.5c124 0 234.5 -31.333 331.5 -94s173.5 -153 229.5 -271s84 -260 84 -426c0 -165.333 -27.667 -307.5 -83 -426.5s-131.333 -210.167 -228 -273.5
s-207 -95 -331 -95c-93.333 0 -169.333 15.667 -228 47s-104.834 68 -138.501 110s-59.5 79.333 -77.5 112h-25v-239h-292zM518.002 768c0 -161.333 34.668 -292.166 104.001 -392.499s168.333 -150.5 297 -150.5c89.333 0 164.166 23.833 224.499 71.5
s105.833 112.5 136.5 194.5s46 174.333 46 277c0 102 -15.167 193.167 -45.5 273.5s-75.5 143.833 -135.5 190.5s-135.333 70 -226 70c-130.667 0 -230.167 -48.833 -298.5 -146.5s-102.5 -226.834 -102.5 -387.501z" />
    <glyph glyph-name="uni0063" unicode="c" horiz-adv-x="1599" 
d="M848 -31c-148.667 0 -276.501 33.8311 -383.501 101.498s-189.167 161.167 -246.5 280.5s-86 256 -86 410c0 156.667 29.333 294.667 88 414s141.5 212.666 248.5 279.999s232.5 101 376.5 101c116.667 0 220.667 -21.5 312 -64.5s165.166 -103.167 221.499 -180.5
s89.833 -167.666 100.5 -270.999h-291c-16 72 -52.5 134 -109.5 186s-133.167 78 -228.5 78c-124.667 0 -225.167 -48.167 -301.5 -144.5s-114.5 -226.833 -114.5 -391.5c0 -167.333 37.667 -300.166 113 -398.499s176.333 -147.5 303 -147.5
c85.333 0 158.333 23.333 219 70s100.334 111.334 119.001 194.001h291c-10.667 -99.333 -43 -188 -97 -266s-126.167 -139.333 -216.5 -184s-196.166 -67 -317.499 -67z" />
    <glyph glyph-name="uni0064" unicode="d" horiz-adv-x="1762" 
d="M776 -30c-124 0 -234.329 31.667 -330.996 95s-172.667 154.5 -228 273.5s-83 261.167 -83 426.5c0 166 27.833 308 83.5 426s132.167 208.333 229.5 271s207.666 94 330.999 94c95.333 0 172.166 -15.833 230.499 -47.5s103.666 -68.5 135.999 -110.5
s57.5 -79 75.5 -111h18v761h299v-2048h-292v239h-25c-18 -32.667 -43.833 -70 -77.5 -112s-79.834 -78.667 -138.501 -110s-134.667 -47 -228 -47zM842.004 225c129.333 0 228.5 50.167 297.5 150.5s103.5 231.166 103.5 392.499c0 160.667 -34.167 289.834 -102.5 387.501
s-167.833 146.5 -298.5 146.5c-90 0 -165 -23.333 -225 -70s-105.167 -110.167 -135.5 -190.5s-45.5 -171.5 -45.5 -273.5c0 -102.667 15.333 -195 46 -277s76.167 -146.833 136.5 -194.5s134.833 -71.5 223.5 -71.5z" />
    <glyph glyph-name="uni0065" unicode="e" horiz-adv-x="1654" 
d="M863 -31c-150.667 0 -280.667 32.667 -390 98s-193.5 157.166 -252.5 275.499s-88.5 256.833 -88.5 415.5c0 157.333 29.5 296 88.5 416s141.667 213.667 248 281s230.833 101 373.5 101c116 0 225.833 -25.833 329.5 -77.5s188 -134 253 -247s97.5 -262.167 97.5 -447.5
v-106h-1092c4 -148 45.667 -262 125 -342s183 -120 311 -120c85.333 0 159 18.333 221 55s106.333 91.334 133 164.001l283 -51c-34 -124.667 -107.333 -225 -220 -301s-252.667 -114 -420 -114zM431 902l798 0.00195312c-0.666992 117.333 -36 214.5 -106 291.5
s-163 115.5 -279 115.5c-80.667 0 -151.167 -18.833 -211.5 -56.5s-108 -87.334 -143 -149.001s-54.5 -128.834 -58.5 -201.501z" />
    <glyph glyph-name="uni0066" unicode="f" horiz-adv-x="1044" 
d="M937 1536l-0.000976562 -240.001h-331v-1296h-300v1296h-237v240h237v178c0 96 21.167 175.833 63.5 239.5s98.166 111.334 167.499 143.001s144.333 47.5 225 47.5c60.667 0 112.334 -4.83301 155.001 -14.5s74.334 -18.5 95.001 -26.5l-70 -242
c-14 4.66699 -32 9.66699 -54 15s-48.667 8 -80 8c-72.667 0 -124.5 -18 -155.5 -54s-46.5 -88 -46.5 -156v-138h331z" />
    <glyph glyph-name="uni0067" unicode="g" horiz-adv-x="1738" 
d="M845 -605c-183.333 0 -327.831 34.3311 -433.498 102.998s-178.834 149.334 -219.501 242.001l257 106c18 -28 42.167 -58.333 72.5 -91s71.666 -60.667 123.999 -84s119.833 -35 202.5 -35c113.333 0 207 27.333 281 82s111 141.334 111 260.001v302h-19
c-18 -32.667 -43.667 -69 -77 -109s-79.5 -74.667 -138.5 -104s-135.5 -44 -229.5 -44c-120.667 0 -229.5 28.5 -326.5 85.5s-173.833 141.333 -230.5 253s-85 249.167 -85 412.5s27.833 303.333 83.5 420s132.167 206.167 229.5 268.5s207.666 93.5 330.999 93.5
c95.333 0 172.5 -15.833 231.5 -47.5s105 -68.5 138 -110.5s58.167 -79 75.5 -111h22v249h293v-1570c0 -130.667 -30.667 -238.167 -92 -322.5s-144.166 -146.833 -248.499 -187.5s-221.833 -61 -352.5 -61zM842.002 270.998c129.333 0 228.5 44.833 297.5 134.5
s103.5 213.834 103.5 372.501c0 155.333 -34.167 281.5 -102.5 378.5s-167.833 145.5 -298.5 145.5c-90 0 -165 -23.167 -225 -69.5s-105.167 -109 -135.5 -188s-45.5 -167.833 -45.5 -266.5c0 -150.667 34.333 -272.834 103 -366.501s169.667 -140.5 303 -140.5z" />
    <glyph glyph-name="uni0068" unicode="h" horiz-adv-x="1695" 
d="M500 912v-912h-299v2048h295v-762h19c36 83.333 91 149.166 165 197.499s170.667 72.5 290 72.5c158 0 285.167 -48.667 381.5 -146s144.5 -241.666 144.5 -432.999v-977h-299v941c0 112.667 -29 200.167 -87 262.5s-138.667 93.5 -242 93.5
c-106.667 0 -194.667 -33.5 -264 -100.5s-104 -161.833 -104 -284.5z" />
    <glyph glyph-name="uni0069" unicode="i" horiz-adv-x="701" 
d="M201 0v1536h299v-1536h-299zM352 1773c-52 0 -96.5 17.5 -133.5 52.5s-55.5 76.833 -55.5 125.5c0 49.333 18.5 91.5 55.5 126.5s81.5 52.5 133.5 52.5c51.333 0 95.666 -17.5 132.999 -52.5s56 -77.167 56 -126.5c0 -48.667 -18.667 -90.5 -56 -125.5
s-81.666 -52.5 -132.999 -52.5z" />
    <glyph glyph-name="uni006A" unicode="j" horiz-adv-x="701" 
d="M201 1536h299.001v-1634c0 -154 -41.5 -272.333 -124.5 -355s-204.833 -123 -365.5 -121h-58v258c9.33301 -0.666992 17.5 -1 24.5 -1h23.5c71.333 0 122.666 19 153.999 57s47 92.667 47 164v1632zM349.001 1773c-52 0 -96.5 17.5 -133.5 52.5s-55.5 76.833 -55.5 125.5
c0 49.333 18.5 91.5 55.5 126.5s81.5 52.5 133.5 52.5c51.333 0 95.666 -17.5 132.999 -52.5s56 -77.167 56 -126.5c0 -48.667 -18.667 -90.5 -56 -125.5s-81.666 -52.5 -132.999 -52.5z" />
    <glyph glyph-name="uni006B" unicode="k" horiz-adv-x="1567" 
d="M201 0v2048h299v-1162h26l612 650h358l-622 -659l664 -877h-367l-522 694l-149 -149v-545h-299z" />
    <glyph glyph-name="uni006C" unicode="l" horiz-adv-x="701" 
d="M500 2048v-2048h-299v2048h299z" />
    <glyph glyph-name="uni006D" unicode="m" horiz-adv-x="2488" 
d="M201 0l-0.000976562 1536h287v-250h19c32 84.667 84.333 150.834 157 198.501s159.667 71.5 261 71.5c102.667 0 188.834 -24 258.501 -72s121.167 -114 154.5 -198h16c37.333 82 95.833 147.5 175.5 196.5s174.834 73.5 285.501 73.5
c139.333 0 253.166 -43.833 341.499 -131.5s132.5 -219.167 132.5 -394.5v-1030h-299v1002c0 104 -28.167 179.333 -84.5 226s-124.166 70 -203.499 70c-97.333 0 -173 -30 -227 -90s-81 -136.333 -81 -229v-979h-298v1021c0 83.333 -26 150.333 -78 201
s-119.667 76 -203 76c-84.667 0 -158.334 -32.667 -221.001 -98s-94 -149.666 -94 -252.999v-947h-299z" />
    <glyph glyph-name="uni006E" unicode="n" horiz-adv-x="1682" 
d="M500 912v-911.999h-299v1536h287v-250h19c35.333 81.333 90.833 146.666 166.5 195.999s171.167 74 286.5 74c157.333 0 283.833 -49 379.5 -147s143.5 -242 143.5 -432v-977h-299v941c0 111.333 -29 198.5 -87 261.5s-137.667 94.5 -239 94.5
c-104 0 -189.667 -33.5 -257 -100.5s-101 -161.833 -101 -284.5z" />
    <glyph glyph-name="uni006F" unicode="o" horiz-adv-x="1696" 
d="M848 -31c-144 0 -269.667 33 -377 99s-190.666 158.5 -249.999 277.5s-89 257.5 -89 415.5c0 159.333 29.667 298.666 89 417.999s142.666 212 249.999 278s233 99 377 99c144.667 0 270.5 -33 377.5 -99s190.167 -158.667 249.5 -278s89 -258.666 89 -417.999
c0 -158 -29.667 -296.5 -89 -415.5s-142.5 -211.5 -249.5 -277.5s-232.833 -99 -377.5 -99zM849 220c94 0 171.5 24.667 232.5 74s106.333 115.166 136 197.499s44.5 172.5 44.5 270.5s-14.833 188.333 -44.5 271s-75 148.834 -136 198.501s-138.5 74.5 -232.5 74.5
s-171.667 -24.833 -233 -74.5s-107 -115.834 -137 -198.501s-45 -173 -45 -271s15 -188.167 45 -270.5s75.667 -148.166 137 -197.499s139 -74 233 -74z" />
    <glyph glyph-name="uni0070" unicode="p" horiz-adv-x="1738" 
d="M201 -576l0.00195312 2112h292v-249h25c18 32 43.167 69 75.5 111s77.666 78.833 135.999 110.5s134.833 47.5 229.5 47.5c124 0 234.5 -31.333 331.5 -94s173.5 -153 229.5 -271s84 -260 84 -426c0 -165.333 -27.667 -307.5 -83 -426.5s-131.333 -210.167 -228 -273.5
s-207 -95 -331 -95c-93.333 0 -169.333 15.667 -228 47s-104.834 68 -138.501 110s-59.5 79.333 -77.5 112h-18v-815h-299zM494.002 768c0 -161.333 34.668 -292.166 104.001 -392.499s168.333 -150.5 297 -150.5c89.333 0 164.166 23.833 224.499 71.5
s105.833 112.5 136.5 194.5s46 174.333 46 277c0 102 -15.167 193.167 -45.5 273.5s-75.5 143.833 -135.5 190.5s-135.333 70 -226 70c-130.667 0 -230.167 -48.833 -298.5 -146.5s-102.5 -226.834 -102.5 -387.501z" />
    <glyph glyph-name="uni0071" unicode="q" horiz-adv-x="1738" 
d="M1537 -576l-0.00195312 2112h-292v-249h-25c-18 32 -43.167 69 -75.5 111s-77.666 78.833 -135.999 110.5s-134.833 47.5 -229.5 47.5c-124 0 -234.5 -31.333 -331.5 -94s-173.5 -153 -229.5 -271s-84 -260 -84 -426c0 -165.333 27.667 -307.5 83 -426.5
s131.333 -210.167 228 -273.5s207 -95 331 -95c93.333 0 169.333 15.667 228 47s104.834 68 138.501 110s59.5 79.333 77.5 112h18v-815h299zM1244 768c0 -161.333 -34.668 -292.166 -104.001 -392.499s-168.333 -150.5 -297 -150.5
c-89.333 0 -164.166 23.833 -224.499 71.5s-105.833 112.5 -136.5 194.5s-46 174.333 -46 277c0 102 15.167 193.167 45.5 273.5s75.5 143.833 135.5 190.5s135.333 70 226 70c130.667 0 230.167 -48.833 298.5 -146.5s102.5 -226.834 102.5 -387.501z" />
    <glyph glyph-name="uni0072" unicode="r" horiz-adv-x="1122" 
d="M201 0v1536h289v-244h16c28 82.667 77.333 147.834 148 195.501s151.334 71.5 242.001 71.5c42 0 79.667 -5 113 -15s62.666 -23.667 87.999 -41l-96 -250c-18 9.33301 -38.333 16.666 -61 21.999s-48.667 8 -78 8c-103.333 0 -189.5 -32.5 -258.5 -97.5
s-103.5 -147.5 -103.5 -247.5v-938h-299z" />
    <glyph glyph-name="uni0073" unicode="s" horiz-adv-x="1509" 
d="M1352 1161l-270.998 -47.999c-17.333 51.333 -49.5 98.5 -96.5 141.5s-117.167 64.5 -210.5 64.5c-84.667 0 -155.5 -18.833 -212.5 -56.5s-85.167 -86.167 -84.5 -145.5c-0.666992 -52 18.166 -93.5 56.499 -124.5s99.833 -56.5 184.5 -76.5l244 -56
c280 -64.667 420 -203.334 420 -416.001c0 -92.667 -26.5 -174.667 -79.5 -246s-126.667 -127.333 -221 -168s-203.5 -61 -327.5 -61c-172.667 0 -313 36.833 -421 110.5s-174.667 178.5 -200 314.5l289 44c36 -152 146 -228 330 -228c98 0 176.333 20.5 235 61.5
s88 91.167 88 150.5c0 98 -72.333 163 -217 195l-260 57c-144 32 -250 84 -318 156s-102 162.333 -102 271c0 90.667 25.333 170.167 76 238.5s120.667 121.5 210 159.5s191.666 57 306.999 57c166 0 296.667 -36 392 -108s158.333 -167.667 189 -287z" />
    <glyph glyph-name="uni0074" unicode="t" horiz-adv-x="1047" 
d="M918 1536l-0.00195312 -239.999h-315v-845c0 -86.667 18.5 -142.5 55.5 -167.5s79.833 -37.5 128.5 -37.5c24 0 45 1.66699 63 5l42 8l54 -247c-17.333 -6.66699 -42.166 -13.5 -74.499 -20.5s-72.166 -10.833 -119.499 -11.5
c-78.667 -1.33301 -152.167 12.667 -220.5 42s-123.333 74.666 -165 135.999s-62.5 138.333 -62.5 231v907h-225v240h225v368h299v-368h315z" />
    <glyph glyph-name="uni0075" unicode="u" horiz-adv-x="1674" 
d="M1174 637l-0.000976562 898.999h300v-1536h-294v266h-16c-35.333 -82 -91.833 -150.167 -169.5 -204.5s-174.167 -81.5 -289.5 -81.5c-147.333 0 -268.166 48.833 -362.499 146.5s-141.5 241.834 -141.5 432.501v977h299v-941c0 -104.667 29 -188 87 -250
s133.333 -93 226 -93c56 0 111.833 14 167.5 42s102 70.5 139 127.5s55.167 128.833 54.5 215.5z" />
    <glyph glyph-name="uni0076" unicode="v" horiz-adv-x="1595" 
d="M1515 1536l-557 -1536h-320l-558 1536h321l389 -1182h16l388 1182h321z" />
    <glyph glyph-name="uni0077" unicode="w" horiz-adv-x="2323" 
d="M534 0l-452 1536h309l301 -1128h15l302 1128h309l300 -1123h15l299 1123h309l-451 -1536h-305l-312 1109h-23l-312 -1109h-304z" />
    <glyph glyph-name="uni0078" unicode="x" horiz-adv-x="1552" 
d="M437 1536l339 -598l342 598h327l-479 -768l483 -768h-327l-346 574l-345 -574h-328l478 768l-472 768h328z" />
    <glyph glyph-name="uni0079" unicode="y" horiz-adv-x="1595" 
d="M379 -597c-46.667 0 -87.668 4 -123.001 12s-61 15.667 -77 23l72 248c82.667 -22 151.834 -23.667 207.501 -5s102.167 78 139.5 178l44 121l-562 1556h320l389 -1192h16l389 1192h321l-640 -1760c-43.333 -119.333 -105.833 -211.333 -187.5 -276
s-184.5 -97 -308.5 -97z" />
    <glyph glyph-name="uni007A" unicode="z" horiz-adv-x="1553" 
d="M169 0v205l832 1057v14h-805v260h1178v-218l-800 -1044v-14h828v-260h-1233z" />
    <glyph glyph-name="uni007B" unicode="{" horiz-adv-x="1064" 
d="M978 -426c-198 0 -343.667 39.5039 -437 118.504s-140 220.833 -140 425.5v288c0 107.333 -22.167 184.166 -66.5 230.499s-123.166 69.5 -236.499 69.5v288c113.333 0 192.166 23.167 236.499 69.5s66.5 123.166 66.5 230.499v287c0 204.667 46.667 346.5 140 425.5
s239 118.5 437 118.5v-237c-116.667 0 -195.334 -26 -236.001 -78s-61 -133.333 -61 -244v-364c0 -79.333 -19.833 -148.833 -59.5 -208.5s-121.834 -101.834 -246.501 -126.501v-35c124.667 -24.667 206.834 -66.834 246.501 -126.501s59.5 -129.167 59.5 -208.5v-364
c0 -110.667 20.333 -192 61 -244s119.334 -78 236.001 -78v-237z" />
    <glyph glyph-name="uni007C" unicode="|" horiz-adv-x="964" 
d="M616 2708v-3368h-268v3368h268z" />
    <glyph glyph-name="uni007D" unicode="}" horiz-adv-x="1064" 
d="M86 2125c198 0 343.667 -39.5039 437 -118.504s140 -220.833 140 -425.5v-288c0 -107.333 22.167 -184.166 66.5 -230.499s123.166 -69.5 236.499 -69.5v-288c-113.333 0 -192.166 -23.167 -236.499 -69.5s-66.5 -123.166 -66.5 -230.499v-287
c0 -204.667 -46.667 -346.5 -140 -425.5s-239 -118.5 -437 -118.5v237c116.667 0 195.334 26 236.001 78s61 133.333 61 244v364c0 79.333 19.833 148.833 59.5 208.5s121.834 101.834 246.501 126.501v35c-124.667 24.667 -206.834 66.834 -246.501 126.501
s-59.5 129.167 -59.5 208.5v364c0 110.667 -20.333 192 -61 244s-119.334 78 -236.001 78v237z" />
    <glyph glyph-name="uni007E" unicode="~" horiz-adv-x="1837" 
d="M207 590c-2.66699 116 14.502 210.998 51.502 284.998s86.833 128.667 149.5 164s131.667 53 207 53c66.667 0 128.167 -14.167 184.5 -42.5s121.166 -74.5 194.499 -138.5c45.333 -39.333 82.333 -67.833 111 -85.5s60.667 -26.5 96 -26.5
c53.333 0 96.333 20.167 129 60.5s48.334 100.166 47.001 179.499h253c2.66699 -115.333 -14.5 -210.166 -51.5 -284.499s-87 -129.166 -150 -164.499s-131.833 -53 -206.5 -53c-67.333 0 -129.5 14.5 -186.5 43.5s-121.5 74.833 -193.5 137.5
c-46.667 40.667 -83.834 69.5 -111.501 86.5s-59.167 25.5 -94.5 25.5c-51.333 0 -93.833 -18.667 -127.5 -56s-49.834 -98.666 -48.501 -183.999h-253z" />
    <glyph glyph-name="uni00A0" unicode="&#xa0;" horiz-adv-x="746" 
 />
    <glyph glyph-name="uni00A1" unicode="&#xa1;" horiz-adv-x="827" 
d="M578 -519l-26 1459h-277l-26 -1459h329zM413 1548c-54.667 0 -101.667 -19.5 -141 -58.5s-59 -86.167 -59 -141.5c0 -54.667 19.667 -101.5 59 -140.5s86.333 -58.5 141 -58.5s101.667 19.5 141 58.5s59 85.833 59 140.5c0 55.333 -19.667 102.5 -59 141.5
s-86.333 58.5 -141 58.5z" />
    <glyph glyph-name="uni00A2" unicode="&#xa2;" horiz-adv-x="1599" 
d="M752 -256l-0.00195312 230c-129.333 14.667 -240.333 57.167 -333 127.5s-163.667 162.166 -213 275.499s-74 241.333 -74 384c0 144.667 25.333 273.834 76 387.501s122.334 205.5 215.001 275.5s202.334 112.333 329.001 127v229h171v-228
c154 -14 281.5 -67 382.5 -159s158.833 -209.667 173.5 -353h-291c-14 62 -43.333 117.167 -88 165.5s-103.667 79.166 -177 92.499v-1070c67.333 12 124.333 40.333 171 85s78 102.334 94 173.001h291c-15.333 -138.667 -71.833 -255.5 -169.5 -350.5
s-226.5 -149.5 -386.5 -163.5v-228h-171zM751.998 233l-0.000976562 1060c-97.333 -24 -174.666 -82 -231.999 -174s-86 -209 -86 -351c0 -144.667 28.5 -263.834 85.5 -357.501s134.5 -152.834 232.5 -177.501z" />
    <glyph glyph-name="uni00A3" unicode="&#xa3;" horiz-adv-x="1814" 
d="M1589 0h-1400v266h97c36.667 2 64.5 20.333 83.5 55s31.833 75.5 38.5 122.5s9.33398 89.5 8.00098 127.5l-8 231h-226v266h217l-12 374c-4.66699 140 21.666 257 78.999 351s134 164.667 230 212s199.333 71 310 71c131.333 0 245.166 -28.167 341.499 -84.5
s167.666 -130.166 213.999 -221.499s60.166 -190 41.499 -296l-289 46c6.66699 65.333 -3.66602 119.666 -30.999 162.999s-64.833 76 -112.5 98s-98.834 33 -153.501 33c-56.667 0 -110.334 -13.167 -161.001 -39.5s-92 -67 -124 -122s-48 -125.167 -48 -210.5l14 -374h471
v-266h-461l8 -223c2.66699 -62.667 -2.16602 -120.5 -14.499 -173.5s-34.5 -99.5 -66.5 -139.5h954v-266z" />
    <glyph glyph-name="uni00A4" unicode="&#xa4;" horiz-adv-x="2075" 
d="M209 836c0 98 13.999 190.504 41.999 277.504s67 166.167 117 237.5l-196 200l170 178l199 -199c68.667 52.667 144.834 93.5 228.501 122.5s171.834 43.5 264.501 43.5c93.333 0 182.333 -15 267 -45s161.667 -71.667 231 -125l199 203l175 -178l-204 -204
c50 -70.667 89 -149.334 117 -236.001s42 -178.334 42 -275.001c0 -92.667 -12.833 -180.834 -38.5 -264.501s-61.5 -160.167 -107.5 -229.5l191 -189l-175 -178l-180 184c-71.333 -58.667 -151 -104.5 -239 -137.5s-180.667 -49.5 -278 -49.5
c-96.667 0 -188.667 16.167 -276 48.5s-166.333 77.166 -237 134.499l-179 -180l-170 178l184 185c-46.667 70 -82.834 147 -108.501 231s-38.5 173 -38.5 267zM440.999 836.004c0 -115.333 26.5 -220.833 79.5 -316.5s124.5 -171.834 214.5 -228.501s189.667 -85 299 -85
c108.667 0 207.5 28.333 296.5 85s160 132.834 213 228.501s79.5 201.167 79.5 316.5c0 117.333 -26.5 223.5 -79.5 318.5s-124 170.667 -213 227s-187.833 84.5 -296.5 84.5c-109.333 0 -209 -28.167 -299 -84.5s-161.5 -132 -214.5 -227s-79.5 -201.167 -79.5 -318.5z" />
    <glyph glyph-name="uni00A5" unicode="&#xa5;" horiz-adv-x="1566" 
d="M372 2048l411 -927l411 927h332l-493 -1016h336v-202h-434v-1v-193h434v-202h-434v-434h-308v434h-444v202h444v194h-444v202h350l-493 1016h332z" />
    <glyph glyph-name="uni00A6" unicode="&#xa6;" horiz-adv-x="822" 
d="M274 558h274v-942h-274v942zM548 2048v-938h-274v938h274z" />
    <glyph glyph-name="uni00A7" unicode="&#xa7;" horiz-adv-x="1591" 
d="M1316 1556h-276.999c0 74.667 -20.333 136.667 -61 186s-104 74 -190 74c-77.333 0 -136.5 -19.5 -177.5 -58.5s-61.5 -83.167 -61.5 -132.5c0 -56 23.167 -105.833 69.5 -149.5s92.166 -77.5 137.499 -101.5l386 -211c35.333 -18.667 77 -46.334 125 -83.001
s90 -84.667 126 -144s52.333 -132.666 49 -219.999c-1.33301 -51.333 -15.333 -99.833 -42 -145.5s-60.334 -84.834 -101.001 -117.501s-83 -56 -127 -70l-2 -4c100.667 -88 151 -201.333 151 -340c0 -100.667 -24.667 -184.667 -74 -252s-114.666 -117.833 -195.999 -151.5
s-170 -50.5 -266 -50.5c-111.333 0 -210 21.333 -296 64s-153.333 103.5 -202 182.5s-73 172.5 -73 280.5h280c0 -86.667 27.167 -153 81.5 -199s124.5 -68.333 210.5 -67c66.667 0 126 15.833 178 47.5s78 80.167 78 145.5c0 45.333 -11 83.5 -33 114.5
s-48.833 57.333 -80.5 79s-62.167 40.834 -91.5 57.501l-387 207c-34.667 18.667 -76.334 46.5 -125.001 83.5s-90.667 85.667 -126 146s-51.666 134.166 -48.999 221.499c2 76 29.667 145.833 83 209.5s116 105.834 188 126.501v6
c-44.667 44.667 -80.834 94.5 -108.501 149.5s-41.5 116.833 -41.5 185.5c0 87.333 22.167 164.833 66.5 232.5s105.333 121 183 160s166.834 58.5 267.501 58.5c107.333 0 200.5 -22.333 279.5 -67s140.167 -106 183.5 -184s65 -167.667 65 -269zM1179 709
c1.33301 50 -15.334 94.668 -50.001 134.001s-77.667 72.333 -129 99l-373 203c-27.333 15.333 -57.5 16.166 -90.5 2.49902s-61.667 -37.5 -86 -71.5s-37.166 -74.333 -38.499 -121c-1.33301 -54.667 15.667 -100.834 51 -138.501s79 -70.5 131 -98.5l360 -193
c25.333 -14 55.5 -14.667 90.5 -2s66 35.334 93 68.001s40.833 72 41.5 118z" />
    <glyph glyph-name="uni00A8" unicode="&#xa8;" horiz-adv-x="1611" 
d="M512 1777c-46.667 0 -87.834 17.333 -123.501 52s-53.5 75.334 -53.5 122.001c0 49.333 17.833 90.833 53.5 124.5s76.834 50.5 123.501 50.5c50 0 91.833 -16.833 125.5 -50.5s50.5 -75.167 50.5 -124.5c0 -46.667 -16.833 -87.334 -50.5 -122.001s-75.5 -52 -125.5 -52
zM1100 1777c-46.667 0 -87.834 17.333 -123.501 52s-53.5 75.334 -53.5 122.001c0 49.333 17.833 90.833 53.5 124.5s76.834 50.5 123.501 50.5c50 0 91.833 -16.833 125.5 -50.5s50.5 -75.167 50.5 -124.5c0 -46.667 -16.833 -87.334 -50.5 -122.001s-75.5 -52 -125.5 -52z
" />
    <glyph glyph-name="uni00A9" unicode="&#xa9;" horiz-adv-x="2331" 
d="M180 1004c0 145.333 25.667 280.166 77 404.499s122.333 233.333 213 327s195.5 166.5 314.5 218.5s246.167 78 381.5 78c136 0 263.667 -26 383 -78s224 -124.833 314 -218.5s160.5 -202.667 211.5 -327s76.5 -259.166 76.5 -404.499c0 -146 -25.5 -281.667 -76.5 -407
s-121.5 -234.666 -211.5 -327.999s-194.667 -166.166 -314 -218.499s-247 -78.5 -383 -78.5c-135.333 0 -262.5 26.167 -381.5 78.5s-223.833 125.166 -314.5 218.499s-161.667 202.666 -213 327.999s-77 261 -77 407zM350 1004c0 -122 21.333 -235.167 64 -339.5
s101.5 -195.5 176.5 -273.5s161.667 -138.667 260 -182s203.5 -65 315.5 -65c113.333 0 219.166 21.667 317.499 65s185 104 260 182s133.5 169.167 175.5 273.5s63 217.5 63 339.5c0 121.333 -21 233.833 -63 337.5s-100.5 194.334 -175.5 272.001
s-161.667 138.167 -260 181.5s-204.166 65 -317.499 65c-112 0 -217.167 -21.667 -315.5 -65s-185 -103.833 -260 -181.5s-133.833 -168.334 -176.5 -272.001s-64 -216.167 -64 -337.5zM1396 820h218c0.666992 -144 -41.333 -252 -126 -324s-197.667 -108 -339 -108
c-148.667 0 -266.667 49.167 -354 147.5s-131 226.5 -131 384.5v164c0 158 43.667 286.167 131 384.5s205.333 147.5 354 147.5c141.333 0 254.333 -36 339 -108s126.667 -180 126 -324h-215c0 88 -21.333 151.333 -64 190s-104.667 58 -186 58
c-88.667 0 -155.834 -32.5 -201.501 -97.5s-68.5 -148.5 -68.5 -250.5v-164c0 -102 22.833 -185.5 68.5 -250.5s112.834 -97.5 201.501 -97.5c81.333 0 142.833 18.833 184.5 56.5s62.5 101.5 62.5 191.5z" />
    <glyph glyph-name="uni00AA" unicode="&#xaa;" horiz-adv-x="1300" 
d="M829 1066c-28 -31.333 -65.1689 -58.168 -111.502 -80.501s-102.5 -33.5 -168.5 -33.5c-110.667 0 -196.167 28.5 -256.5 85.5s-90.5 132.5 -90.5 226.5c0 102 39.5 180.667 118.5 236s198.167 83 357.5 83h141v69c0 117.333 -53.667 176 -161 176
c-60.667 0 -108 -11.667 -142 -35s-51 -57 -51 -101l-239 19c0 92.667 39.333 169.334 118 230.001s183.334 91 314.001 91c121.333 0 219 -31.833 293 -95.5s111 -158.5 111 -284.5v-432c0 -42.667 2.33301 -84.5 7 -125.5s14.334 -82.167 29.001 -123.5h-246
c-9.33301 30 -17 61.667 -23 95zM818.998 1423h-141.001c-80 0 -138.333 -15.333 -175 -46s-55 -66 -55 -106c0 -80 54 -120 162 -120c37.333 0 75.333 8.5 114 25.5s70.334 36.833 95.001 59.5v187z" />
    <glyph glyph-name="uni00AB" unicode="&#xab;" horiz-adv-x="1601" 
d="M851 220h-267l-404 600v28l404 600h267l-380 -614zM1412 220h-267l-404 600v28l404 600h267l-380 -614z" />
    <glyph glyph-name="uni00AC" unicode="&#xac;" horiz-adv-x="1558" 
d="M1361 1108v-592h-279v356h-880v236h1159z" />
    <glyph glyph-name="uni00AD" unicode="&#xad;" horiz-adv-x="1304" 
d="M1106 995v-259h-908v259h908z" />
    <glyph glyph-name="uni00AE" unicode="&#xae;" horiz-adv-x="2331" 
d="M180 1004c0 145.333 25.667 280.166 77 404.499s122.333 233.333 213 327s195.5 166.5 314.5 218.5s246.167 78 381.5 78c136 0 263.667 -26 383 -78s224 -124.833 314 -218.5s160.5 -202.667 211.5 -327s76.5 -259.166 76.5 -404.499c0 -146 -25.5 -281.667 -76.5 -407
s-121.5 -234.666 -211.5 -327.999s-194.667 -166.166 -314 -218.499s-247 -78.5 -383 -78.5c-135.333 0 -262.5 26.167 -381.5 78.5s-223.833 125.166 -314.5 218.499s-161.667 202.666 -213 327.999s-77 261 -77 407zM350 1004c0 -122 21.333 -235.167 64 -339.5
s101.5 -195.5 176.5 -273.5s161.667 -138.667 260 -182s203.5 -65 315.5 -65c113.333 0 219.166 21.667 317.499 65s185 104 260 182s133.5 169.167 175.5 273.5s63 217.5 63 339.5c0 121.333 -21 233.833 -63 337.5s-100.5 194.334 -175.5 272.001
s-161.667 138.167 -260 181.5s-204.166 65 -317.499 65c-112 0 -217.167 -21.667 -315.5 -65s-185 -103.833 -260 -181.5s-133.833 -168.334 -176.5 -272.001s-64 -216.167 -64 -337.5zM1186 900l-217.996 0.00195312v-464h-210v1168h391
c137.333 0 246.666 -29.667 327.999 -89s121.666 -148 120.999 -266c0.666992 -109.333 -55 -193 -167 -251c60.667 -26.667 103.167 -65.334 127.5 -116.001s36.166 -108.667 35.499 -174v-76c1.33301 -74.667 9.33301 -133.334 24 -176.001v-20h-214
c-10 22 -15.833 55.167 -17.5 99.5s-2.5 76.5 -2.5 96.5v76c0 64 -14.833 112 -44.5 144s-80.834 48 -153.501 48zM968.004 1084h200.999c59.333 0 111.333 13.5 156 40.5s67 66.833 67 119.5c0 66 -18.167 111.833 -54.5 137.5s-99.166 38.5 -188.499 38.5h-181v-336z" />
    <glyph glyph-name="uni00AF" unicode="&#xaf;" horiz-adv-x="1373" 
d="M1161 2048v-210h-949v210h949z" />
    <glyph glyph-name="uni00B0" unicode="&#xb0;" horiz-adv-x="1285" 
d="M642 1120c-86 0 -164.667 21.167 -236 63.5s-128.166 99.166 -170.499 170.499s-63.5 150 -63.5 236c0 86.667 21.167 165.667 63.5 237s99.166 128.166 170.499 170.499s150 63.5 236 63.5c86.667 0 165.667 -21.167 237 -63.5s128.166 -99.166 170.499 -170.499
s63.5 -150.333 63.5 -237c0 -86 -21.167 -164.667 -63.5 -236s-99.166 -128.166 -170.499 -170.499s-150.333 -63.5 -237 -63.5zM642 1348c67.333 0 124.666 23.667 171.999 71s71 104.333 71 171c0 67.333 -23.667 124.666 -71 171.999s-104.666 71 -171.999 71
c-66.667 0 -123.667 -23.667 -171 -71s-71 -104.666 -71 -171.999c0 -66.667 23.667 -123.667 71 -171s104.333 -71 171 -71z" />
    <glyph glyph-name="uni00B1" unicode="&#xb1;" horiz-adv-x="1837" 
d="M254 906v259h530v387h269v-387h529v-259h-529v-388h-269v388h-530zM254 90v262h1328v-262h-1328z" />
    <glyph glyph-name="uni00B2" unicode="&#xb2;" horiz-adv-x="1187" 
d="M134 1024l0.000976562 177.997l475 407c65.333 56.667 115.333 105.5 150 146.5s52 86.5 52 136.5c0 56 -21.833 100.167 -65.5 132.5s-97.5 48.5 -161.5 48.5c-68 0 -122.667 -17.667 -164 -53s-62 -82.666 -62 -141.999h-237c0 118.667 43.667 213.334 131 284.001
s199.333 106 336 106c137.333 0 248.166 -35.667 332.499 -107s126.5 -159.666 126.5 -264.999c0 -84 -25.833 -160.167 -77.5 -228.5s-134.167 -147.5 -247.5 -237.5l-232 -196v-9h586v-201h-942z" />
    <glyph glyph-name="uni00B3" unicode="&#xb3;" horiz-adv-x="1223" 
d="M609 1008c-94.667 0 -179.331 15.332 -253.998 45.999s-133.667 73.5 -177 128.5s-66 118.167 -68 189.5h252c2 -48.667 26.5 -87.334 73.5 -116.001s104.833 -43 173.5 -43c72 0 131.667 15.833 179 47.5s71 73.5 71 125.5c0 50.667 -24.833 92.334 -74.5 125.001
s-117.167 49 -202.5 49h-113v182h113c70 0 128 15.333 174 46s69 71.334 69 122.001c0 47.333 -19.5 86.333 -58.5 117s-90.167 46 -153.5 46c-64.667 0 -120 -15 -166 -45s-70 -69.667 -72 -119h-237c1.33301 71.333 23.166 133.833 65.499 187.5
s99.166 95.667 170.499 126s151.333 45.5 240 45.5c134 0 242.833 -32.833 326.5 -98.5s125.5 -147.5 125.5 -245.5c0 -72 -24.833 -130.5 -74.5 -175.5s-110.167 -73.167 -181.5 -84.5v-9c98 -12.667 173.333 -44.834 226 -96.501s79 -115.167 79 -190.5
c0 -69.333 -21.667 -131.166 -65 -185.499s-103 -97 -179 -128s-163.333 -46.5 -262 -46.5z" />
    <glyph glyph-name="uni00B4" unicode="&#xb4;" horiz-adv-x="1400" 
d="M426 1741l233 461h315l-309 -461h-239z" />
    <glyph glyph-name="uni00B5" unicode="&#xb5;" horiz-adv-x="1794" 
d="M201 -570l0.00292969 2106h299v-899c0 -114.667 36.333 -207.5 109 -278.5s168.667 -106.5 288 -106.5s215.333 35.833 288 107.5s109 164.167 109 277.5v899h299v-1536h-294v225h-12c-38 -76.667 -91.833 -135 -161.5 -175s-145.834 -60 -228.501 -60
s-158.834 20 -228.501 60s-123.834 98.333 -162.501 175h-12v-795h-293z" />
    <glyph glyph-name="uni00B6" unicode="&#xb6;" horiz-adv-x="1698" 
d="M1194 0v1792h-248v-1032h-116c-146.667 0 -270.834 27.833 -372.501 83.5s-178.834 132 -231.501 229s-79 207.5 -79 331.5c0 122.667 26.333 232.5 79 329.5s129.834 173.667 231.501 230s225.834 84.5 372.501 84.5h643v-2048h-279z" />
    <glyph glyph-name="uni00B7" unicode="&#xb7;" horiz-adv-x="802" 
d="M404 826c-54.667 0 -101.667 19.5 -141 58.5s-59 86.167 -59 141.5c0 54.667 19.667 101.5 59 140.5s86.333 58.5 141 58.5s101.667 -19.5 141 -58.5s59 -85.833 59 -140.5c0 -55.333 -19.667 -102.5 -59 -141.5s-86.333 -58.5 -141 -58.5z" />
    <glyph glyph-name="uni00B8" unicode="&#xb8;" horiz-adv-x="853" 
d="M330 8l195.999 0.00195312l-16 -82c57.333 -8.66699 107.833 -31.834 151.5 -69.501s65.5 -94.167 65.5 -169.5c0.666992 -90.667 -38.166 -163.834 -116.499 -219.501s-191.5 -83.5 -339.5 -83.5l-6 167c69.333 0 125.5 10 168.5 30s64.833 52.333 65.5 97
s-15.833 76.167 -49.5 94.5s-87.167 30.833 -160.5 37.5z" />
    <glyph glyph-name="uni00B9" unicode="&#xb9;" horiz-adv-x="863" 
d="M637 2252v-1228h-242v923h-12c-14.667 -18.667 -45.5 -39.334 -92.5 -62.001s-109.5 -33.667 -187.5 -33v196c60 0.666992 112 12.834 156 36.5c44 23.667 78.5 51.334 103.5 83c25 31.667 38.5 59.834 40.5 84.5h234z" />
    <glyph glyph-name="uni00BA" unicode="&#xba;" horiz-adv-x="1298" 
d="M168 1436l-0.000976562 107c0 142.667 43.333 259.834 130 351.501s203.667 137.5 351 137.5c149.333 0 266.833 -45.833 352.5 -137.5s128.5 -208.834 128.5 -351.501v-107c0 -142 -42.667 -258.333 -128 -349s-201.666 -136 -348.999 -136
c-149.333 0 -267.5 45.333 -354.5 136s-130.5 207 -130.5 349zM409.999 1543l-0.00195312 -107c0 -82 20.333 -149.833 61 -203.5s101.334 -80.5 182.001 -80.5c78.667 0 137.334 26.833 176.001 80.5s58 121.5 58 203.5v107c0 80 -19.5 147.5 -58.5 202.5
s-98.833 82.5 -179.5 82.5c-78.667 0 -138.167 -27.5 -178.5 -82.5s-60.5 -122.5 -60.5 -202.5z" />
    <glyph glyph-name="uni00BB" unicode="&#xbb;" horiz-adv-x="1604" 
d="M173 220l380 614l-380 614h267l404 -600v-28l-404 -600h-267zM737 220l380 614l-380 614h267l404 -600v-28l-404 -600h-267z" />
    <glyph glyph-name="uni00BC" unicode="&#xbc;" horiz-adv-x="2487" 
d="M369 0l1408 2048h239l-1408 -2048h-239zM583 2048l0.000976562 -1088h-230v805h-12c-12.667 -16.667 -40.334 -35.167 -83.001 -55.5s-98 -30.166 -166 -29.499v186c78.667 -0.666992 142.167 20 190.5 62s73.5 82 75.5 120h225zM1445 188.999v183l519 716h290v-712h155
v-187h-155v-189h-221v189h-588zM2037 375.999v461h-9l-344 -455v-6h353z" />
    <glyph glyph-name="uni00BD" unicode="&#xbd;" horiz-adv-x="2598" 
d="M369 0l1408 2048h239l-1408 -2048h-239zM583 2048l0.000976562 -1088h-230v805h-12c-12.667 -16.667 -40.334 -35.167 -83.001 -55.5s-98 -30.166 -166 -29.499v186c78.667 -0.666992 142.167 20 190.5 62s73.5 82 75.5 120h225zM1641 -0.000976562l-0.000976562 168.001
l432 354c58.667 48.667 102.834 90.667 132.5 126c29.667 35.333 44.5 73.333 44.5 114c0 49.333 -19.333 88.166 -58 116.499s-86.667 42.5 -144 42.5s-105.166 -15.167 -143.499 -45.5s-57.5 -71.5 -57.5 -123.5h-222c0 106 39.667 191.167 119 255.5
s182.333 96.5 309 96.5c127.333 0 228.833 -32.5 304.5 -97.5s113.5 -145.167 113.5 -240.5c0 -74 -23 -141.333 -69 -202s-121.333 -131 -226 -211l-199 -156v-9h524v-188h-860z" />
    <glyph glyph-name="uni00BE" unicode="&#xbe;" horiz-adv-x="2690" 
d="M572 0l1408 2048h239l-1408 -2048h-239zM1648 189v183l519 716h290v-712h155v-187h-155v-189h-221v189h-588zM2240 376v461h-9l-344 -455v-6h353zM552 944c-132.667 0 -241.503 31.499 -326.503 94.499s-127.833 142.167 -128.5 237.5h236
c0.666992 -40.667 22 -74.167 64 -100.5s93.333 -39.5 154 -39.5c63.333 0 115.333 13.833 156 41.5s61 62.834 61 105.501c0 43.333 -22 78.666 -66 105.999s-102.667 41 -176 41h-102v168h102c62 0 113.5 13.167 154.5 39.5s61.5 60.5 61.5 102.5
c0 40.667 -17.5 74.334 -52.5 101.001s-80.5 40 -136.5 40s-104.167 -13.167 -144.5 -39.5s-61.166 -60.166 -62.499 -101.499h-225c2.66699 94.667 44.834 172.334 126.501 233.001s183.834 91 306.501 91s222.5 -29.333 299.5 -88s115.5 -131.667 115.5 -219
c0 -61.333 -21.667 -112.5 -65 -153.5s-100 -66.167 -170 -75.5v-9c89.333 -10.667 157.833 -38.834 205.5 -84.501s71.5 -101.834 71.5 -168.501c0 -92.667 -43 -169.5 -129 -230.5s-196 -91.5 -330 -91.5z" />
    <glyph glyph-name="uni00BF" unicode="&#xbf;" horiz-adv-x="1480" 
d="M952 937l0.000976562 -19.0029c-0.666992 -124 -12.834 -222.667 -36.501 -296s-57.667 -132.5 -102 -177.5s-97.5 -86.5 -159.5 -124.5c-59.333 -37.333 -109.5 -82.666 -150.5 -135.999s-61.5 -117.333 -61.5 -192c0 -88.667 30 -159.167 90 -211.5
s132.667 -78.5 218 -78.5c76.667 0 147 24.333 211 73s99 126 105 232h304c-4.66699 -120 -35 -221.5 -91 -304.5s-130.167 -145.833 -222.5 -188.5s-194.5 -64 -306.5 -64c-122.667 0 -229.834 22.833 -321.501 68.5s-163.167 109.334 -214.5 191.001
s-77 176.834 -77 285.501c0 112.667 25.833 208.167 77.5 286.5s122.167 144.5 211.5 198.5c84.667 52.667 145.334 110 182.001 172s56 150.667 58 266v19h286zM801.001 1545c54.667 0 101.667 -19.5 141 -58.5s59 -86.167 59 -141.5c0 -54.667 -19.667 -101.5 -59 -140.5
s-86.333 -58.5 -141 -58.5s-101.667 19.5 -141 58.5s-59 85.833 -59 140.5c0 55.333 19.667 102.5 59 141.5s86.333 58.5 141 58.5z" />
    <glyph glyph-name="uni00C0" unicode="&#xc0;" horiz-adv-x="1971" 
d="M398 0h-328l737 2048h357l737 -2048h-328l-187 542h-800zM676 802h620l-302 874h-16zM1108 2253h-239l-309 461h315z" />
    <glyph glyph-name="uni00C1" unicode="&#xc1;" horiz-adv-x="1971" 
d="M398 0h-328l737 2048h357l737 -2048h-328l-187 542h-800zM676 802h620l-302 874h-16zM863 2253l233 461h315l-309 -461h-239z" />
    <glyph glyph-name="uni00C2" unicode="&#xc2;" horiz-adv-x="1971" 
d="M398 0h-328l737 2048h357l737 -2048h-328l-187 542h-800zM676 802h620l-302 874h-16zM780 2232l206 268l205 -268h271v15l-352 424h-249l-351 -424v-15h270z" />
    <glyph glyph-name="uni00C3" unicode="&#xc3;" horiz-adv-x="1971" 
d="M398 0h-328l737 2048h357l737 -2048h-328l-187 542h-800zM676 802h620l-302 874h-16zM685 2252l-201.002 6c0 110.667 29.833 199 89.5 265s133.5 99 221.5 99c54.667 0 100.834 -11.167 138.501 -33.5s73.667 -44.833 108 -67.5s73.833 -34 118.5 -34
c38.667 0 70 14.667 94 44s36.333 65.666 37 109l197 -13c0 -111.333 -30 -198.833 -90 -262.5s-133.667 -95.834 -221 -96.5c-47.333 0 -86.5 6.83301 -117.5 20.5s-58.5 29.5 -82.5 47.5s-48.667 33.833 -74 47.5s-55.666 20.5 -90.999 20.5
c-36.667 0 -67 -14.5 -91 -43.5s-36 -65.167 -36 -108.5z" />
    <glyph glyph-name="uni00C4" unicode="&#xc4;" horiz-adv-x="1971" 
d="M398 0h-328l737 2048h357l737 -2048h-328l-187 542h-800zM676 802h620l-302 874h-16zM692 2289c-46.667 0 -87.834 17.333 -123.501 52s-53.5 75.334 -53.5 122c0 49.333 17.833 90.833 53.5 124.5s76.834 50.5 123.501 50.5c50 0 91.833 -16.833 125.5 -50.5
s50.5 -75.167 50.5 -124.5c0 -46.667 -16.833 -87.334 -50.5 -122c-33.667 -34.667 -75.5 -52 -125.5 -52zM1280 2289c-46.667 0 -87.834 17.333 -123.501 52s-53.5 75.334 -53.5 122c0 49.333 17.833 90.833 53.5 124.5s76.834 50.5 123.501 50.5
c50 0 91.833 -16.833 125.5 -50.5s50.5 -75.167 50.5 -124.5c0 -46.667 -16.833 -87.334 -50.5 -122c-33.667 -34.667 -75.5 -52 -125.5 -52z" />
    <glyph glyph-name="uni00C5" unicode="&#xc5;" horiz-adv-x="1971" 
d="M398 0h-328l737 2048h357l737 -2048h-328l-187 542h-800zM676 802h620l-302 874h-16zM986 2175c-60.667 0 -116 14 -166 42s-89.833 65.667 -119.5 113s-44.5 99.333 -44.5 156c0 57.333 14.833 109.666 44.5 157c29.667 47.333 69.5 85 119.5 113s105.333 42 166 42
s115.834 -14 165.501 -42s89.334 -65.667 119.001 -113s44.5 -99.666 44.5 -157c0 -56.667 -14.833 -108.667 -44.5 -156s-69.334 -85 -119.001 -113s-104.834 -42 -165.501 -42zM986 2334c43.333 0.666992 80.166 15.667 110.499 45s45.5 65 45.5 107
c0 42.667 -15.167 78.834 -45.5 108.5c-30.333 29.667 -67.166 44.167 -110.499 43.5c-43.333 0 -80.333 -14.667 -111 -44s-46 -65.333 -46 -108c0 -42 15.333 -77.833 46 -107.5s67.667 -44.5 111 -44.5z" />
    <glyph glyph-name="uni00C6" unicode="&#xc6;" horiz-adv-x="2826" 
d="M70 0l954 2048h1613v-266h-975v-624h908v-265h-908v-627h987v-266h-1296v542h-698l-245 -542h-340zM773 802h580v957h-147z" />
    <glyph glyph-name="uni00C7" unicode="&#xc7;" horiz-adv-x="2071" 
d="M1926 1382l-312 0.00195312c-25.333 132.667 -87.5 234.5 -186.5 305.5s-213.833 106.5 -344.5 106.5c-117.333 0 -222.666 -29.667 -315.999 -89s-166.833 -146.166 -220.5 -260.499s-80.5 -254.5 -80.5 -420.5c0 -166.667 27 -307.334 81 -422.001
s127.5 -201.334 220.5 -260.001s197.833 -88 314.5 -88c129.333 0 243.666 35 342.999 105s162.333 170.333 189 301l312 -1c-22 -134.667 -71.333 -253.667 -148 -357s-174.667 -184.166 -294 -242.499s-254 -87.5 -404 -87.5c-177.333 0 -335.333 42.167 -474 126.5
s-247.834 205.166 -327.501 362.499s-119.5 345 -119.5 563c0 218.667 40 406.5 120 563.5s189.333 277.667 328 362s296.334 126.5 473.001 126.5c144.667 0 276.5 -27.333 395.5 -82s218 -133.834 297 -237.501s130.167 -228.5 153.5 -374.5zM975 -2.99805
l195.999 0.00195312l-16 -82c57.333 -8.66699 107.833 -31.834 151.5 -69.501s65.5 -94.167 65.5 -169.5c0.666992 -90.667 -38.166 -163.834 -116.499 -219.501s-191.5 -83.5 -339.5 -83.5l-6 167c69.333 0 125.5 10 168.5 30s64.833 52.333 65.5 97
s-15.833 76.167 -49.5 94.5s-87.167 30.833 -160.5 37.5z" />
    <glyph glyph-name="uni00C8" unicode="&#xc8;" horiz-adv-x="1698" 
d="M225 0v2048h1284v-266h-975v-624h908v-265h-908v-627h987v-266h-1296zM989 2253h-239l-309 461h315z" />
    <glyph glyph-name="uni00C9" unicode="&#xc9;" horiz-adv-x="1698" 
d="M225 0v2048h1284v-266h-975v-624h908v-265h-908v-627h987v-266h-1296zM744 2253l233 461h315l-309 -461h-239z" />
    <glyph glyph-name="uni00CA" unicode="&#xca;" horiz-adv-x="1698" 
d="M225 0v2048h1284v-266h-975v-624h908v-265h-908v-627h987v-266h-1296zM661 2232l206 268l205 -268h271v15l-352 424h-249l-351 -424v-15h270z" />
    <glyph glyph-name="uni00CB" unicode="&#xcb;" horiz-adv-x="1698" 
d="M225 0v2048h1284v-266h-975v-624h908v-265h-908v-627h987v-266h-1296zM573 2289c-46.667 0 -87.834 17.333 -123.501 52s-53.5 75.334 -53.5 122c0 49.333 17.833 90.833 53.5 124.5s76.834 50.5 123.501 50.5c50 0 91.833 -16.833 125.5 -50.5s50.5 -75.167 50.5 -124.5
c0 -46.667 -16.833 -87.334 -50.5 -122c-33.667 -34.667 -75.5 -52 -125.5 -52zM1161 2289c-46.667 0 -87.834 17.333 -123.501 52s-53.5 75.334 -53.5 122c0 49.333 17.833 90.833 53.5 124.5s76.834 50.5 123.501 50.5c50 0 91.833 -16.833 125.5 -50.5
s50.5 -75.167 50.5 -124.5c0 -46.667 -16.833 -87.334 -50.5 -122c-33.667 -34.667 -75.5 -52 -125.5 -52z" />
    <glyph glyph-name="uni00CC" unicode="&#xcc;" horiz-adv-x="759" 
d="M534 2048v-2048h-309v2048h309zM503 2253h-239l-309 461h315z" />
    <glyph glyph-name="uni00CD" unicode="&#xcd;" horiz-adv-x="759" 
d="M534 2048v-2048h-309v2048h309zM257 2253l233 461h315l-309 -461h-239z" />
    <glyph glyph-name="uni00CE" unicode="&#xce;" horiz-adv-x="759" 
d="M534 2048v-2048h-309v2048h309zM174 2232l206 268l205 -268h271v15l-352 424h-249l-351 -424v-15h270z" />
    <glyph glyph-name="uni00CF" unicode="&#xcf;" horiz-adv-x="759" 
d="M534 2048v-2048h-309v2048h309zM86 2289c-46.667 0 -87.834 17.333 -123.501 52s-53.5 75.334 -53.5 122c0 49.333 17.833 90.833 53.5 124.5s76.834 50.5 123.501 50.5c50 0 91.833 -16.833 125.5 -50.5s50.5 -75.167 50.5 -124.5c0 -46.667 -16.833 -87.334 -50.5 -122
c-33.667 -34.667 -75.5 -52 -125.5 -52zM674 2289c-46.667 0 -87.834 17.333 -123.501 52s-53.5 75.334 -53.5 122c0 49.333 17.833 90.833 53.5 124.5s76.834 50.5 123.501 50.5c50 0 91.833 -16.833 125.5 -50.5s50.5 -75.167 50.5 -124.5
c0 -46.667 -16.833 -87.334 -50.5 -122c-33.667 -34.667 -75.5 -52 -125.5 -52z" />
    <glyph glyph-name="uni00D0" unicode="&#xd0;" horiz-adv-x="2032" 
d="M888 0l-663 -0.00195312v2048h684c201.333 0 373.833 -40.833 517.5 -122.5s254 -198.667 331 -351s115.5 -334.833 115.5 -547.5c0 -213.333 -38.667 -396.666 -116 -549.999s-189.5 -271.166 -336.5 -353.499s-324.5 -123.5 -532.5 -123.5zM534 269.998h337
c233.333 0 408 65.5 524 196.5s174 317.833 174 560.5c0 241.333 -57.167 426.833 -171.5 556.5s-283.5 194.5 -507.5 194.5h-356v-1508zM-81 959.998v207h919v-207h-919z" />
    <glyph glyph-name="uni00D1" unicode="&#xd1;" horiz-adv-x="2103" 
d="M1878 2048v-2048h-284l-1041 1502h-19v-1502h-309v2048h286l1042 -1504h19v1504h306zM751 2234l-201.002 6c0 110.667 29.833 199 89.5 265s133.5 99 221.5 99c54.667 0 100.834 -11.167 138.501 -33.5s73.667 -44.833 108 -67.5s73.833 -34 118.5 -34
c38.667 0 70 14.667 94 44s36.333 65.666 37 109l197 -13c0 -111.333 -30 -198.833 -90 -262.5s-133.667 -95.834 -221 -96.5c-47.333 0 -86.5 6.83301 -117.5 20.5s-58.5 29.5 -82.5 47.5s-48.667 33.833 -74 47.5s-55.666 20.5 -90.999 20.5
c-36.667 0 -67 -14.5 -91 -43.5s-36 -65.167 -36 -108.5z" />
    <glyph glyph-name="uni00D2" unicode="&#xd2;" horiz-adv-x="2163" 
d="M2004 1024c0 -218 -40 -405.667 -120 -563s-189.5 -278.166 -328.5 -362.499s-296.833 -126.5 -473.5 -126.5c-177.333 0 -335.5 42.167 -474.5 126.5s-248.5 205.166 -328.5 362.499s-120 345 -120 563c0 218.667 40 406.5 120 563.5s189.5 277.667 328.5 362
s297.167 126.5 474.5 126.5c176.667 0 334.5 -42.167 473.5 -126.5s248.5 -205 328.5 -362s120 -344.833 120 -563.5zM1698 1024c0 166.667 -26.833 307.167 -80.5 421.5s-127 201 -220 260s-198.167 88.5 -315.5 88.5s-222.5 -29.5 -315.5 -88.5
s-166.333 -145.667 -220 -260s-80.5 -254.833 -80.5 -421.5c0 -166 26.833 -306.333 80.5 -421s127 -201.5 220 -260.5s198.167 -88.5 315.5 -88.5s222.5 29.5 315.5 88.5s166.333 145.833 220 260.5s80.5 255 80.5 421zM1204 2253h-239l-309 461h315z" />
    <glyph glyph-name="uni00D3" unicode="&#xd3;" horiz-adv-x="2163" 
d="M2004 1024c0 -218 -40 -405.667 -120 -563s-189.5 -278.166 -328.5 -362.499s-296.833 -126.5 -473.5 -126.5c-177.333 0 -335.5 42.167 -474.5 126.5s-248.5 205.166 -328.5 362.499s-120 345 -120 563c0 218.667 40 406.5 120 563.5s189.5 277.667 328.5 362
s297.167 126.5 474.5 126.5c176.667 0 334.5 -42.167 473.5 -126.5s248.5 -205 328.5 -362s120 -344.833 120 -563.5zM1698 1024c0 166.667 -26.833 307.167 -80.5 421.5s-127 201 -220 260s-198.167 88.5 -315.5 88.5s-222.5 -29.5 -315.5 -88.5
s-166.333 -145.667 -220 -260s-80.5 -254.833 -80.5 -421.5c0 -166 26.833 -306.333 80.5 -421s127 -201.5 220 -260.5s198.167 -88.5 315.5 -88.5s222.5 29.5 315.5 88.5s166.333 145.833 220 260.5s80.5 255 80.5 421zM959 2253l233 461h315l-309 -461h-239z" />
    <glyph glyph-name="uni00D4" unicode="&#xd4;" horiz-adv-x="2163" 
d="M2004 1024c0 -218 -40 -405.667 -120 -563s-189.5 -278.166 -328.5 -362.499s-296.833 -126.5 -473.5 -126.5c-177.333 0 -335.5 42.167 -474.5 126.5s-248.5 205.166 -328.5 362.499s-120 345 -120 563c0 218.667 40 406.5 120 563.5s189.5 277.667 328.5 362
s297.167 126.5 474.5 126.5c176.667 0 334.5 -42.167 473.5 -126.5s248.5 -205 328.5 -362s120 -344.833 120 -563.5zM1698 1024c0 166.667 -26.833 307.167 -80.5 421.5s-127 201 -220 260s-198.167 88.5 -315.5 88.5s-222.5 -29.5 -315.5 -88.5
s-166.333 -145.667 -220 -260s-80.5 -254.833 -80.5 -421.5c0 -166 26.833 -306.333 80.5 -421s127 -201.5 220 -260.5s198.167 -88.5 315.5 -88.5s222.5 29.5 315.5 88.5s166.333 145.833 220 260.5s80.5 255 80.5 421zM876 2232l206 268l205 -268h271v15l-352 424h-249
l-351 -424v-15h270z" />
    <glyph glyph-name="uni00D5" unicode="&#xd5;" horiz-adv-x="2163" 
d="M2004 1024c0 -218 -40 -405.667 -120 -563s-189.5 -278.166 -328.5 -362.499s-296.833 -126.5 -473.5 -126.5c-177.333 0 -335.5 42.167 -474.5 126.5s-248.5 205.166 -328.5 362.499s-120 345 -120 563c0 218.667 40 406.5 120 563.5s189.5 277.667 328.5 362
s297.167 126.5 474.5 126.5c176.667 0 334.5 -42.167 473.5 -126.5s248.5 -205 328.5 -362s120 -344.833 120 -563.5zM1698 1024c0 166.667 -26.833 307.167 -80.5 421.5s-127 201 -220 260s-198.167 88.5 -315.5 88.5s-222.5 -29.5 -315.5 -88.5
s-166.333 -145.667 -220 -260s-80.5 -254.833 -80.5 -421.5c0 -166 26.833 -306.333 80.5 -421s127 -201.5 220 -260.5s198.167 -88.5 315.5 -88.5s222.5 29.5 315.5 88.5s166.333 145.833 220 260.5s80.5 255 80.5 421zM781 2252l-201.002 6c0 110.667 29.833 199 89.5 265
s133.5 99 221.5 99c54.667 0 100.834 -11.167 138.501 -33.5s73.667 -44.833 108 -67.5s73.833 -34 118.5 -34c38.667 0 70 14.667 94 44s36.333 65.666 37 109l197 -13c0 -111.333 -30 -198.833 -90 -262.5s-133.667 -95.834 -221 -96.5
c-47.333 0 -86.5 6.83301 -117.5 20.5s-58.5 29.5 -82.5 47.5s-48.667 33.833 -74 47.5s-55.666 20.5 -90.999 20.5c-36.667 0 -67 -14.5 -91 -43.5s-36 -65.167 -36 -108.5z" />
    <glyph glyph-name="uni00D6" unicode="&#xd6;" horiz-adv-x="2163" 
d="M2004 1024c0 -218 -40 -405.667 -120 -563s-189.5 -278.166 -328.5 -362.499s-296.833 -126.5 -473.5 -126.5c-177.333 0 -335.5 42.167 -474.5 126.5s-248.5 205.166 -328.5 362.499s-120 345 -120 563c0 218.667 40 406.5 120 563.5s189.5 277.667 328.5 362
s297.167 126.5 474.5 126.5c176.667 0 334.5 -42.167 473.5 -126.5s248.5 -205 328.5 -362s120 -344.833 120 -563.5zM1698 1024c0 166.667 -26.833 307.167 -80.5 421.5s-127 201 -220 260s-198.167 88.5 -315.5 88.5s-222.5 -29.5 -315.5 -88.5
s-166.333 -145.667 -220 -260s-80.5 -254.833 -80.5 -421.5c0 -166 26.833 -306.333 80.5 -421s127 -201.5 220 -260.5s198.167 -88.5 315.5 -88.5s222.5 29.5 315.5 88.5s166.333 145.833 220 260.5s80.5 255 80.5 421zM788 2289c-46.667 0 -87.834 17.333 -123.501 52
s-53.5 75.334 -53.5 122c0 49.333 17.833 90.833 53.5 124.5s76.834 50.5 123.501 50.5c50 0 91.833 -16.833 125.5 -50.5s50.5 -75.167 50.5 -124.5c0 -46.667 -16.833 -87.334 -50.5 -122c-33.667 -34.667 -75.5 -52 -125.5 -52zM1376 2289
c-46.667 0 -87.834 17.333 -123.501 52s-53.5 75.334 -53.5 122c0 49.333 17.833 90.833 53.5 124.5s76.834 50.5 123.501 50.5c50 0 91.833 -16.833 125.5 -50.5s50.5 -75.167 50.5 -124.5c0 -46.667 -16.833 -87.334 -50.5 -122c-33.667 -34.667 -75.5 -52 -125.5 -52z
" />
    <glyph glyph-name="uni00D7" unicode="&#xd7;" horiz-adv-x="1837" 
d="M1399 137l-480 480l-481 -480l-189 189l480 480l-480 480l189 190l481 -480l480 480l189 -190l-480 -480l480 -480z" />
    <glyph glyph-name="uni00D8" unicode="&#xd8;" horiz-adv-x="2163" 
d="M442 -89l-166.002 114.001l151 221c-84 90.667 -149.667 201.667 -197 333s-71 279.666 -71 444.999c0 218.667 40 406.5 120 563.5s189.5 277.667 328.5 362s297.167 126.5 474.5 126.5c186.667 0 352.334 -47 497.001 -141l135 198l167 -114l-147 -215
c84.667 -90.667 150.834 -201.834 198.501 -333.501s71.5 -280.5 71.5 -446.5c0 -218 -40 -405.667 -120 -563s-189.5 -278.166 -328.5 -362.499s-296.833 -126.5 -473.5 -126.5c-188.667 0 -355.667 47.667 -501 143zM1698 1024c0 110 -12.167 208.833 -36.5 296.5
s-58.5 163.167 -102.5 226.5l-813 -1191c96 -68 208 -102 336 -102c117.333 0 222.5 29.5 315.5 88.5s166.333 145.833 220 260.5s80.5 255 80.5 421zM602.998 504.001l812 1190c-96 66.667 -207 100 -333 100c-117.333 0 -222.5 -29.5 -315.5 -88.5
s-166.333 -145.667 -220 -260s-80.5 -254.833 -80.5 -421.5c0 -109.333 12 -207.5 36 -294.5s57.667 -162.167 101 -225.5z" />
    <glyph glyph-name="uni00D9" unicode="&#xd9;" horiz-adv-x="2077" 
d="M1543 2048h309v-1355c0 -154 -36.333 -285.167 -109 -393.5s-170.5 -191 -293.5 -248s-260.167 -85.5 -411.5 -85.5c-150.667 0 -287.5 28.5 -410.5 85.5s-220.833 139.667 -293.5 248s-109 239.5 -109 393.5v1355h309v-1350c0 -95.333 23 -176.5 69 -243.5
s107.167 -117.833 183.5 -152.5s160.166 -52 251.499 -52c92 0 176.333 17.333 253 52s137.834 85.5 183.501 152.5s68.5 148.167 68.5 243.5v1350zM1161 2253h-239l-309 461h315z" />
    <glyph glyph-name="uni00DA" unicode="&#xda;" horiz-adv-x="2077" 
d="M1543 2048h309v-1355c0 -154 -36.333 -285.167 -109 -393.5s-170.5 -191 -293.5 -248s-260.167 -85.5 -411.5 -85.5c-150.667 0 -287.5 28.5 -410.5 85.5s-220.833 139.667 -293.5 248s-109 239.5 -109 393.5v1355h309v-1350c0 -95.333 23 -176.5 69 -243.5
s107.167 -117.833 183.5 -152.5s160.166 -52 251.499 -52c92 0 176.333 17.333 253 52s137.834 85.5 183.501 152.5s68.5 148.167 68.5 243.5v1350zM916 2253l233 461h315l-309 -461h-239z" />
    <glyph glyph-name="uni00DB" unicode="&#xdb;" horiz-adv-x="2077" 
d="M1543 2048h309v-1355c0 -154 -36.333 -285.167 -109 -393.5s-170.5 -191 -293.5 -248s-260.167 -85.5 -411.5 -85.5c-150.667 0 -287.5 28.5 -410.5 85.5s-220.833 139.667 -293.5 248s-109 239.5 -109 393.5v1355h309v-1350c0 -95.333 23 -176.5 69 -243.5
s107.167 -117.833 183.5 -152.5s160.166 -52 251.499 -52c92 0 176.333 17.333 253 52s137.834 85.5 183.501 152.5s68.5 148.167 68.5 243.5v1350zM833 2232l206 268l205 -268h271v15l-352 424h-249l-351 -424v-15h270z" />
    <glyph glyph-name="uni00DC" unicode="&#xdc;" horiz-adv-x="2077" 
d="M1543 2048h309v-1355c0 -154 -36.333 -285.167 -109 -393.5s-170.5 -191 -293.5 -248s-260.167 -85.5 -411.5 -85.5c-150.667 0 -287.5 28.5 -410.5 85.5s-220.833 139.667 -293.5 248s-109 239.5 -109 393.5v1355h309v-1350c0 -95.333 23 -176.5 69 -243.5
s107.167 -117.833 183.5 -152.5s160.166 -52 251.499 -52c92 0 176.333 17.333 253 52s137.834 85.5 183.501 152.5s68.5 148.167 68.5 243.5v1350zM745 2289c-46.667 0 -87.834 17.333 -123.501 52s-53.5 75.334 -53.5 122c0 49.333 17.833 90.833 53.5 124.5
s76.834 50.5 123.501 50.5c50 0 91.833 -16.833 125.5 -50.5s50.5 -75.167 50.5 -124.5c0 -46.667 -16.833 -87.334 -50.5 -122c-33.667 -34.667 -75.5 -52 -125.5 -52zM1333 2289c-46.667 0 -87.834 17.333 -123.501 52s-53.5 75.334 -53.5 122
c0 49.333 17.833 90.833 53.5 124.5s76.834 50.5 123.501 50.5c50 0 91.833 -16.833 125.5 -50.5s50.5 -75.167 50.5 -124.5c0 -46.667 -16.833 -87.334 -50.5 -122c-33.667 -34.667 -75.5 -52 -125.5 -52z" />
    <glyph glyph-name="uni00DD" unicode="&#xdd;" horiz-adv-x="1928" 
d="M67 2048h351l535 -931h22l535 931h351l-743 -1244v-804h-308v804zM841 2253l233 461h315l-309 -461h-239z" />
    <glyph glyph-name="uni00DE" unicode="&#xde;" horiz-adv-x="1814" 
d="M213 2048l309 0.000976562v-408h364c152 0 280.5 -26.833 385.5 -80.5s184.667 -125.834 239 -216.501s81.5 -192 81.5 -304s-27.167 -213.333 -81.5 -304s-134 -162.667 -239 -216s-233.5 -80 -385.5 -80h-364v-439h-309v2048zM522 697.001h364
c136 0 238.5 30.5 307.5 91.5s103.5 143.167 103.5 246.5c0 104 -34.5 187.833 -103.5 251.5s-171.5 95.5 -307.5 95.5h-364v-685z" />
    <glyph glyph-name="uni00DF" unicode="&#xdf;" horiz-adv-x="1767" 
d="M225 0l-0.00195312 1518c0 115.333 26.5 214.666 79.5 297.999s126.667 147.5 221 192.5s203.833 67.5 328.5 67.5c120 0 228.5 -21.167 325.5 -63.5s173.833 -103.5 230.5 -183.5s85 -176.667 85 -290c0 -112.667 -28.667 -208 -86 -286s-133.333 -132.667 -228 -164
v-21c131.333 -11.333 237.666 -62.333 318.999 -153s122 -207.667 122 -351c0 -112 -25.833 -210.333 -77.5 -295s-123.667 -150.667 -216 -198s-200.166 -71 -323.499 -71h-239v262h219c102.667 0 184.334 29.5 245.001 88.5s91 134.833 91 227.5
c-0.666992 97.333 -34.5 176.833 -101.5 238.5s-158.167 92.5 -273.5 92.5h-172v260h120c91.333 0 163.833 33 217.5 99s80.834 141.333 81.501 226c0 89.333 -29.5 164.333 -88.5 225s-139.833 91 -242.5 91c-98.667 0 -179.667 -28.667 -243 -86
s-95 -132.666 -95 -225.999v-1498h-299z" />
    <glyph glyph-name="uni00E0" unicode="&#xe0;" horiz-adv-x="1603" 
d="M648 -34c-97.333 0 -185.167 17.998 -263.5 53.998s-140.5 88.833 -186.5 158.5s-69 154.834 -69 255.501c0 87.333 16.833 159 50.5 215s78.667 100.333 135 133s119.5 57.167 189.5 73.5s141.333 28.833 214 37.5l223.5 26.5c57 7 98.667 18.5 125 34.5
s39.5 42 39.5 78v7c0 87.333 -24.5 155 -73.5 203s-121.833 72 -218.5 72c-100.667 0 -179.834 -22 -237.501 -66s-97.5 -93.333 -119.5 -148l-281 64c50 140 133.5 240.333 250.5 301s244.833 91 383.5 91c61.333 0 126.333 -7.16699 195 -21.5
s133.5 -40.666 194.5 -78.999s110.667 -92.5 149 -162.5s57.5 -161 57.5 -273v-1020h-292v210h-12c-28.667 -57.333 -79.667 -112.333 -153 -165s-173.666 -79 -300.999 -79zM712.999 205.998c83.333 0 154.333 16.332 213 48.999s103.5 75.5 134.5 128.5
s46.5 109.833 46.5 170.5v198c-14 -14 -44.667 -26.333 -92 -37s-97.333 -19.667 -150 -27l-128 -18c-86.667 -11.333 -160.834 -34.166 -222.501 -68.499s-92.5 -91.5 -92.5 -171.5c0 -74 27.333 -129.833 82 -167.5s124.334 -56.5 209.001 -56.5zM947.999 1741h-239
l-309 461h315z" />
    <glyph glyph-name="uni00E1" unicode="&#xe1;" horiz-adv-x="1603" 
d="M648 -34c-97.333 0 -185.167 17.998 -263.5 53.998s-140.5 88.833 -186.5 158.5s-69 154.834 -69 255.501c0 87.333 16.833 159 50.5 215s78.667 100.333 135 133s119.5 57.167 189.5 73.5s141.333 28.833 214 37.5l223.5 26.5c57 7 98.667 18.5 125 34.5
s39.5 42 39.5 78v7c0 87.333 -24.5 155 -73.5 203s-121.833 72 -218.5 72c-100.667 0 -179.834 -22 -237.501 -66s-97.5 -93.333 -119.5 -148l-281 64c50 140 133.5 240.333 250.5 301s244.833 91 383.5 91c61.333 0 126.333 -7.16699 195 -21.5
s133.5 -40.666 194.5 -78.999s110.667 -92.5 149 -162.5s57.5 -161 57.5 -273v-1020h-292v210h-12c-28.667 -57.333 -79.667 -112.333 -153 -165s-173.666 -79 -300.999 -79zM712.999 205.998c83.333 0 154.333 16.332 213 48.999s103.5 75.5 134.5 128.5
s46.5 109.833 46.5 170.5v198c-14 -14 -44.667 -26.333 -92 -37s-97.333 -19.667 -150 -27l-128 -18c-86.667 -11.333 -160.834 -34.166 -222.501 -68.499s-92.5 -91.5 -92.5 -171.5c0 -74 27.333 -129.833 82 -167.5s124.334 -56.5 209.001 -56.5zM702.999 1741l233 461
h315l-309 -461h-239z" />
    <glyph glyph-name="uni00E2" unicode="&#xe2;" horiz-adv-x="1603" 
d="M648 -34c-97.333 0 -185.167 17.998 -263.5 53.998s-140.5 88.833 -186.5 158.5s-69 154.834 -69 255.501c0 87.333 16.833 159 50.5 215s78.667 100.333 135 133s119.5 57.167 189.5 73.5s141.333 28.833 214 37.5l223.5 26.5c57 7 98.667 18.5 125 34.5
s39.5 42 39.5 78v7c0 87.333 -24.5 155 -73.5 203s-121.833 72 -218.5 72c-100.667 0 -179.834 -22 -237.501 -66s-97.5 -93.333 -119.5 -148l-281 64c50 140 133.5 240.333 250.5 301s244.833 91 383.5 91c61.333 0 126.333 -7.16699 195 -21.5
s133.5 -40.666 194.5 -78.999s110.667 -92.5 149 -162.5s57.5 -161 57.5 -273v-1020h-292v210h-12c-28.667 -57.333 -79.667 -112.333 -153 -165s-173.666 -79 -300.999 -79zM712.999 205.998c83.333 0 154.333 16.332 213 48.999s103.5 75.5 134.5 128.5
s46.5 109.833 46.5 170.5v198c-14 -14 -44.667 -26.333 -92 -37s-97.333 -19.667 -150 -27l-128 -18c-86.667 -11.333 -160.834 -34.166 -222.501 -68.499s-92.5 -91.5 -92.5 -171.5c0 -74 27.333 -129.833 82 -167.5s124.334 -56.5 209.001 -56.5zM619.999 1720l206 268
l205 -268h271v15l-352 424h-249l-351 -424v-15h270z" />
    <glyph glyph-name="uni00E3" unicode="&#xe3;" horiz-adv-x="1603" 
d="M648 -34c-97.333 0 -185.167 17.998 -263.5 53.998s-140.5 88.833 -186.5 158.5s-69 154.834 -69 255.501c0 87.333 16.833 159 50.5 215s78.667 100.333 135 133s119.5 57.167 189.5 73.5s141.333 28.833 214 37.5l223.5 26.5c57 7 98.667 18.5 125 34.5
s39.5 42 39.5 78v7c0 87.333 -24.5 155 -73.5 203s-121.833 72 -218.5 72c-100.667 0 -179.834 -22 -237.501 -66s-97.5 -93.333 -119.5 -148l-281 64c50 140 133.5 240.333 250.5 301s244.833 91 383.5 91c61.333 0 126.333 -7.16699 195 -21.5
s133.5 -40.666 194.5 -78.999s110.667 -92.5 149 -162.5s57.5 -161 57.5 -273v-1020h-292v210h-12c-28.667 -57.333 -79.667 -112.333 -153 -165s-173.666 -79 -300.999 -79zM712.999 205.998c83.333 0 154.333 16.332 213 48.999s103.5 75.5 134.5 128.5
s46.5 109.833 46.5 170.5v198c-14 -14 -44.667 -26.333 -92 -37s-97.333 -19.667 -150 -27l-128 -18c-86.667 -11.333 -160.834 -34.166 -222.501 -68.499s-92.5 -91.5 -92.5 -171.5c0 -74 27.333 -129.833 82 -167.5s124.334 -56.5 209.001 -56.5zM524.999 1722
l-201.002 6.00195c0 110.667 29.833 199 89.5 265s133.5 99 221.5 99c54.667 0 100.834 -11.167 138.501 -33.5s73.667 -44.833 108 -67.5s73.833 -34 118.5 -34c38.667 0 70 14.667 94 44s36.333 65.666 37 108.999l197 -13c0 -111.333 -30 -198.833 -90 -262.5
s-133.667 -95.834 -221 -96.501c-47.333 0 -86.5 6.83301 -117.5 20.5s-58.5 29.5 -82.5 47.5s-48.667 33.833 -74 47.5s-55.666 20.5 -90.999 20.5c-36.667 0 -67 -14.5 -91 -43.5s-36 -65.167 -36 -108.5z" />
    <glyph glyph-name="uni00E4" unicode="&#xe4;" horiz-adv-x="1603" 
d="M648 -34c-97.333 0 -185.167 17.998 -263.5 53.998s-140.5 88.833 -186.5 158.5s-69 154.834 -69 255.501c0 87.333 16.833 159 50.5 215s78.667 100.333 135 133s119.5 57.167 189.5 73.5s141.333 28.833 214 37.5l223.5 26.5c57 7 98.667 18.5 125 34.5
s39.5 42 39.5 78v7c0 87.333 -24.5 155 -73.5 203s-121.833 72 -218.5 72c-100.667 0 -179.834 -22 -237.501 -66s-97.5 -93.333 -119.5 -148l-281 64c50 140 133.5 240.333 250.5 301s244.833 91 383.5 91c61.333 0 126.333 -7.16699 195 -21.5
s133.5 -40.666 194.5 -78.999s110.667 -92.5 149 -162.5s57.5 -161 57.5 -273v-1020h-292v210h-12c-28.667 -57.333 -79.667 -112.333 -153 -165s-173.666 -79 -300.999 -79zM712.999 205.998c83.333 0 154.333 16.332 213 48.999s103.5 75.5 134.5 128.5
s46.5 109.833 46.5 170.5v198c-14 -14 -44.667 -26.333 -92 -37s-97.333 -19.667 -150 -27l-128 -18c-86.667 -11.333 -160.834 -34.166 -222.501 -68.499s-92.5 -91.5 -92.5 -171.5c0 -74 27.333 -129.833 82 -167.5s124.334 -56.5 209.001 -56.5zM531.999 1777
c-46.667 0 -87.834 17.333 -123.501 52s-53.5 75.334 -53.5 122.001c0 49.333 17.833 90.833 53.5 124.5s76.834 50.5 123.501 50.5c50 0 91.833 -16.833 125.5 -50.5s50.5 -75.167 50.5 -124.5c0 -46.667 -16.833 -87.334 -50.5 -122.001s-75.5 -52 -125.5 -52zM1120 1777
c-46.667 0 -87.834 17.333 -123.501 52s-53.5 75.334 -53.5 122.001c0 49.333 17.833 90.833 53.5 124.5s76.834 50.5 123.501 50.5c50 0 91.833 -16.833 125.5 -50.5s50.5 -75.167 50.5 -124.5c0 -46.667 -16.833 -87.334 -50.5 -122.001s-75.5 -52 -125.5 -52z" />
    <glyph glyph-name="uni00E5" unicode="&#xe5;" horiz-adv-x="1603" 
d="M648 -34c-97.333 0 -185.167 17.998 -263.5 53.998s-140.5 88.833 -186.5 158.5s-69 154.834 -69 255.501c0 87.333 16.833 159 50.5 215s78.667 100.333 135 133s119.5 57.167 189.5 73.5s141.333 28.833 214 37.5l223.5 26.5c57 7 98.667 18.5 125 34.5
s39.5 42 39.5 78v7c0 87.333 -24.5 155 -73.5 203s-121.833 72 -218.5 72c-100.667 0 -179.834 -22 -237.501 -66s-97.5 -93.333 -119.5 -148l-281 64c50 140 133.5 240.333 250.5 301s244.833 91 383.5 91c61.333 0 126.333 -7.16699 195 -21.5
s133.5 -40.666 194.5 -78.999s110.667 -92.5 149 -162.5s57.5 -161 57.5 -273v-1020h-292v210h-12c-28.667 -57.333 -79.667 -112.333 -153 -165s-173.666 -79 -300.999 -79zM712.999 205.998c83.333 0 154.333 16.332 213 48.999s103.5 75.5 134.5 128.5
s46.5 109.833 46.5 170.5v198c-14 -14 -44.667 -26.333 -92 -37s-97.333 -19.667 -150 -27l-128 -18c-86.667 -11.333 -160.834 -34.166 -222.501 -68.499s-92.5 -91.5 -92.5 -171.5c0 -74 27.333 -129.833 82 -167.5s124.334 -56.5 209.001 -56.5zM825.999 1706
c-66.667 0 -127 14.834 -181 44.501s-96.833 70 -128.5 121s-47.5 107.833 -47.5 170.5s15.833 120.167 47.5 172.5s74.5 94.166 128.5 125.5c54 31.333 114.333 47 181 47s126.5 -15.667 179.5 -47s95.167 -73.166 126.5 -125.5c31.333 -52.333 47 -109.833 47 -172.5
c0 -94.667 -34 -174.334 -102 -239.001s-151.667 -97 -251 -97zM825.999 1866c52 0.666992 95 18.833 129 54.5s51 76.167 51 121.5c0 46.667 -17 88.5 -51 125.5s-77 55.5 -129 55.5c-52.667 0 -95.834 -18.5 -129.501 -55.5s-50.5 -78.833 -50.5 -125.5
c0 -45.333 16.833 -86 50.5 -122s76.834 -54 129.501 -54z" />
    <glyph glyph-name="uni00E6" unicode="&#xe6;" horiz-adv-x="2594" 
d="M1811 -31c-134 0 -251.007 26.8291 -351.007 80.4961s-174.333 127.167 -223 220.5h-11c-22 -57.333 -61.167 -109 -117.5 -155s-123.666 -82.333 -201.999 -109s-161.833 -40 -250.5 -40c-100.667 0 -190.667 18.167 -270 54.5s-142 89.333 -188 159
s-69 154.5 -69 254.5c0 87.333 16.833 158.833 50.5 214.5s78.834 99.834 135.501 132.501s119.834 57.334 189.501 74.001s140.834 29.334 213.501 38.001c138 16.667 237.167 30.667 297.5 42s90.5 43.666 90.5 96.999v7c0 86.667 -24.5 154.167 -73.5 202.5
s-121.833 72.5 -218.5 72.5c-100 0 -179 -22 -237 -66s-98 -93.333 -120 -148l-281 64c50 140 133.333 240.333 250 301s245.334 91 386.001 91c51.333 0 107.333 -5.83301 168 -17.5s118.834 -34 174.501 -67s101.5 -81.833 137.5 -146.5c116.667 154 279.667 231 489 231
c116.667 0 226.834 -25.833 330.501 -77.5s188 -134 253 -247s97.5 -262.167 97.5 -447.5v-106h-1093c4 -147.333 45.833 -261.166 125.5 -341.499s183.167 -120.5 310.5 -120.5c85.333 0 159 18.333 221 55s106.333 91.334 133 164.001l283 -51
c-34 -124.667 -107.167 -225 -219.5 -301s-249.5 -114 -411.5 -114zM712.993 205.996c83.333 0 154.333 16.332 213 48.999s103.5 75.5 134.5 128.5s46.5 109.833 46.5 170.5v198c-14 -14 -44.667 -26.333 -92 -37s-97.333 -19.667 -150 -27l-128 -18
c-86.667 -11.333 -160.834 -34.166 -222.501 -68.499s-92.5 -91.5 -92.5 -171.5c0 -74 27.333 -129.833 82 -167.5s124.334 -56.5 209.001 -56.5zM1369.99 901.995h798.001c-0.666992 117.333 -36 214.5 -106 291.5s-163 115.5 -279 115.5
c-80.667 0 -151.167 -18.833 -211.5 -56.5s-107.833 -87.5 -142.5 -149.5s-54.334 -129 -59.001 -201z" />
    <glyph glyph-name="uni00E7" unicode="&#xe7;" horiz-adv-x="1599" 
d="M848 -31c-148.667 0 -276.501 33.8311 -383.501 101.498s-189.167 161.167 -246.5 280.5s-86 256 -86 410c0 156.667 29.333 294.667 88 414s141.5 212.666 248.5 279.999s232.5 101 376.5 101c116.667 0 220.667 -21.5 312 -64.5s165.166 -103.167 221.499 -180.5
s89.833 -167.666 100.5 -270.999h-291c-16 72 -52.5 134 -109.5 186s-133.167 78 -228.5 78c-124.667 0 -225.167 -48.167 -301.5 -144.5s-114.5 -226.833 -114.5 -391.5c0 -167.333 37.667 -300.166 113 -398.499s176.333 -147.5 303 -147.5
c85.333 0 158.333 23.333 219 70s100.334 111.334 119.001 194.001h291c-10.667 -99.333 -43 -188 -97 -266s-126.167 -139.333 -216.5 -184s-196.166 -67 -317.499 -67zM739.999 7.99805l195.999 0.00195312l-16 -82c57.333 -8.66699 107.833 -31.834 151.5 -69.501
s65.5 -94.167 65.5 -169.5c0.666992 -90.667 -38.166 -163.834 -116.499 -219.501s-191.5 -83.5 -339.5 -83.5l-6 167c69.333 0 125.5 10 168.5 30s64.833 52.333 65.5 97s-15.833 76.167 -49.5 94.5s-87.167 30.833 -160.5 37.5z" />
    <glyph glyph-name="uni00E8" unicode="&#xe8;" horiz-adv-x="1654" 
d="M863 -31c-150.667 0 -280.667 32.667 -390 98s-193.5 157.166 -252.5 275.499s-88.5 256.833 -88.5 415.5c0 157.333 29.5 296 88.5 416s141.667 213.667 248 281s230.833 101 373.5 101c116 0 225.833 -25.833 329.5 -77.5s188 -134 253 -247s97.5 -262.167 97.5 -447.5
v-106h-1092c4 -148 45.667 -262 125 -342s183 -120 311 -120c85.333 0 159 18.333 221 55s106.333 91.334 133 164.001l283 -51c-34 -124.667 -107.333 -225 -220 -301s-252.667 -114 -420 -114zM431 902l798 0.00195312c-0.666992 117.333 -36 214.5 -106 291.5
s-163 115.5 -279 115.5c-80.667 0 -151.167 -18.833 -211.5 -56.5s-108 -87.334 -143 -149.001s-54.5 -128.834 -58.5 -201.501zM953 1741h-239l-309 461h315z" />
    <glyph glyph-name="uni00E9" unicode="&#xe9;" horiz-adv-x="1654" 
d="M863 -31c-150.667 0 -280.667 32.667 -390 98s-193.5 157.166 -252.5 275.499s-88.5 256.833 -88.5 415.5c0 157.333 29.5 296 88.5 416s141.667 213.667 248 281s230.833 101 373.5 101c116 0 225.833 -25.833 329.5 -77.5s188 -134 253 -247s97.5 -262.167 97.5 -447.5
v-106h-1092c4 -148 45.667 -262 125 -342s183 -120 311 -120c85.333 0 159 18.333 221 55s106.333 91.334 133 164.001l283 -51c-34 -124.667 -107.333 -225 -220 -301s-252.667 -114 -420 -114zM431 902l798 0.00195312c-0.666992 117.333 -36 214.5 -106 291.5
s-163 115.5 -279 115.5c-80.667 0 -151.167 -18.833 -211.5 -56.5s-108 -87.334 -143 -149.001s-54.5 -128.834 -58.5 -201.501zM708 1741l233 461h315l-309 -461h-239z" />
    <glyph glyph-name="uni00EA" unicode="&#xea;" horiz-adv-x="1654" 
d="M863 -31c-150.667 0 -280.667 32.667 -390 98s-193.5 157.166 -252.5 275.499s-88.5 256.833 -88.5 415.5c0 157.333 29.5 296 88.5 416s141.667 213.667 248 281s230.833 101 373.5 101c116 0 225.833 -25.833 329.5 -77.5s188 -134 253 -247s97.5 -262.167 97.5 -447.5
v-106h-1092c4 -148 45.667 -262 125 -342s183 -120 311 -120c85.333 0 159 18.333 221 55s106.333 91.334 133 164.001l283 -51c-34 -124.667 -107.333 -225 -220 -301s-252.667 -114 -420 -114zM431 902l798 0.00195312c-0.666992 117.333 -36 214.5 -106 291.5
s-163 115.5 -279 115.5c-80.667 0 -151.167 -18.833 -211.5 -56.5s-108 -87.334 -143 -149.001s-54.5 -128.834 -58.5 -201.501zM625 1720l206 268l205 -268h271v15l-352 424h-249l-351 -424v-15h270z" />
    <glyph glyph-name="uni00EB" unicode="&#xeb;" horiz-adv-x="1654" 
d="M863 -31c-150.667 0 -280.667 32.667 -390 98s-193.5 157.166 -252.5 275.499s-88.5 256.833 -88.5 415.5c0 157.333 29.5 296 88.5 416s141.667 213.667 248 281s230.833 101 373.5 101c116 0 225.833 -25.833 329.5 -77.5s188 -134 253 -247s97.5 -262.167 97.5 -447.5
v-106h-1092c4 -148 45.667 -262 125 -342s183 -120 311 -120c85.333 0 159 18.333 221 55s106.333 91.334 133 164.001l283 -51c-34 -124.667 -107.333 -225 -220 -301s-252.667 -114 -420 -114zM431 902l798 0.00195312c-0.666992 117.333 -36 214.5 -106 291.5
s-163 115.5 -279 115.5c-80.667 0 -151.167 -18.833 -211.5 -56.5s-108 -87.334 -143 -149.001s-54.5 -128.834 -58.5 -201.501zM537 1777c-46.667 0 -87.834 17.333 -123.501 52s-53.5 75.334 -53.5 122.001c0 49.333 17.833 90.833 53.5 124.5s76.834 50.5 123.501 50.5
c50 0 91.833 -16.833 125.5 -50.5s50.5 -75.167 50.5 -124.5c0 -46.667 -16.833 -87.334 -50.5 -122.001s-75.5 -52 -125.5 -52zM1125 1777c-46.667 0 -87.834 17.333 -123.501 52s-53.5 75.334 -53.5 122.001c0 49.333 17.833 90.833 53.5 124.5s76.834 50.5 123.501 50.5
c50 0 91.833 -16.833 125.5 -50.5s50.5 -75.167 50.5 -124.5c0 -46.667 -16.833 -87.334 -50.5 -122.001s-75.5 -52 -125.5 -52z" />
    <glyph glyph-name="uni00EC" unicode="&#xec;" horiz-adv-x="701" 
d="M201 0v1536h299v-1536h-299zM475 1741h-239l-309 461h315z" />
    <glyph glyph-name="uni00ED" unicode="&#xed;" horiz-adv-x="701" 
d="M201 0v1536h299v-1536h-299zM229 1741l233 461h315l-309 -461h-239z" />
    <glyph glyph-name="uni00EE" unicode="&#xee;" horiz-adv-x="701" 
d="M201 0v1536h299v-1536h-299zM146 1720l206 268l205 -268h271v15l-352 424h-249l-351 -424v-15h270z" />
    <glyph glyph-name="uni00EF" unicode="&#xef;" horiz-adv-x="701" 
d="M201 0v1536h299v-1536h-299zM58 1777c-46.667 0 -87.834 17.333 -123.501 52s-53.5 75.334 -53.5 122.001c0 49.333 17.833 90.833 53.5 124.5s76.834 50.5 123.501 50.5c50 0 91.833 -16.833 125.5 -50.5s50.5 -75.167 50.5 -124.5
c0 -46.667 -16.833 -87.334 -50.5 -122.001s-75.5 -52 -125.5 -52zM646 1777c-46.667 0 -87.834 17.333 -123.501 52s-53.5 75.334 -53.5 122.001c0 49.333 17.833 90.833 53.5 124.5s76.834 50.5 123.501 50.5c50 0 91.833 -16.833 125.5 -50.5s50.5 -75.167 50.5 -124.5
c0 -46.667 -16.833 -87.334 -50.5 -122.001s-75.5 -52 -125.5 -52z" />
    <glyph glyph-name="uni00F0" unicode="&#xf0;" horiz-adv-x="1625" 
d="M1311 1925l-253.999 -125.002c124 -130.667 227.333 -284 310 -460s124 -372 124 -588c0 -165.333 -28.333 -306.5 -85 -423.5s-135.834 -206.333 -237.501 -268s-220.5 -92.5 -356.5 -92.5c-138 0 -257.833 31.667 -359.5 95s-180.167 150.333 -235.5 261
s-83 237.334 -83 380.001c0 143.333 26.333 268.833 79 376.5s122.834 192.334 210.501 254.001s183.5 94.834 287.5 99.501c101.333 3.33301 187.666 -16.834 258.999 -60.501s125.333 -93.5 162 -149.5h20c-32 74.667 -73 151.5 -123 230.5s-116 157.167 -198 234.5
l-353 -174l-84 171l277 136c-75.333 54.667 -158.333 105.667 -249 153l132 201c59.333 -30.667 119 -65.834 179 -105.5c60 -39.667 118.667 -83.5 176 -131.5l318 156zM818.001 219.998c129.333 0 227.833 44.166 295.5 132.499s101.5 202.166 101.5 341.499
c0 88 -14 170.333 -42 247s-71.333 138.834 -130 186.501s-133.667 71.5 -225 71.5c-128.667 0 -226.167 -47 -292.5 -141s-99.5 -211.667 -99.5 -353c0 -90 14 -171.667 42 -245s70.833 -131.666 128.5 -174.999s131.5 -65 221.5 -65z" />
    <glyph glyph-name="uni00F1" unicode="&#xf1;" horiz-adv-x="1682" 
d="M500 912v-911.999h-299v1536h287v-250h19c35.333 81.333 90.833 146.666 166.5 195.999s171.167 74 286.5 74c157.333 0 283.833 -49 379.5 -147s143.5 -242 143.5 -432v-977h-299v941c0 111.333 -29 198.5 -87 261.5s-137.667 94.5 -239 94.5
c-104 0 -189.667 -33.5 -257 -100.5s-101 -161.833 -101 -284.5zM541 1722l-201.002 6.00195c0 110.667 29.833 199 89.5 265s133.5 99 221.5 99c54.667 0 100.834 -11.167 138.501 -33.5s73.667 -44.833 108 -67.5s73.833 -34 118.5 -34c38.667 0 70 14.667 94 44
s36.333 65.666 37 108.999l197 -13c0 -111.333 -30 -198.833 -90 -262.5s-133.667 -95.834 -221 -96.501c-47.333 0 -86.5 6.83301 -117.5 20.5s-58.5 29.5 -82.5 47.5s-48.667 33.833 -74 47.5s-55.666 20.5 -90.999 20.5c-36.667 0 -67 -14.5 -91 -43.5
s-36 -65.167 -36 -108.5z" />
    <glyph glyph-name="uni00F2" unicode="&#xf2;" horiz-adv-x="1696" 
d="M848 -31c-144 0 -269.667 33 -377 99s-190.666 158.5 -249.999 277.5s-89 257.5 -89 415.5c0 159.333 29.667 298.666 89 417.999s142.666 212 249.999 278s233 99 377 99c144.667 0 270.5 -33 377.5 -99s190.167 -158.667 249.5 -278s89 -258.666 89 -417.999
c0 -158 -29.667 -296.5 -89 -415.5s-142.5 -211.5 -249.5 -277.5s-232.833 -99 -377.5 -99zM849 220c94 0 171.5 24.667 232.5 74s106.333 115.166 136 197.499s44.5 172.5 44.5 270.5s-14.833 188.333 -44.5 271s-75 148.834 -136 198.501s-138.5 74.5 -232.5 74.5
s-171.667 -24.833 -233 -74.5s-107 -115.834 -137 -198.501s-45 -173 -45 -271s15 -188.167 45 -270.5s75.667 -148.166 137 -197.499s139 -74 233 -74zM971 1741h-239l-309 461h315z" />
    <glyph glyph-name="uni00F3" unicode="&#xf3;" horiz-adv-x="1696" 
d="M848 -31c-144 0 -269.667 33 -377 99s-190.666 158.5 -249.999 277.5s-89 257.5 -89 415.5c0 159.333 29.667 298.666 89 417.999s142.666 212 249.999 278s233 99 377 99c144.667 0 270.5 -33 377.5 -99s190.167 -158.667 249.5 -278s89 -258.666 89 -417.999
c0 -158 -29.667 -296.5 -89 -415.5s-142.5 -211.5 -249.5 -277.5s-232.833 -99 -377.5 -99zM849 220c94 0 171.5 24.667 232.5 74s106.333 115.166 136 197.499s44.5 172.5 44.5 270.5s-14.833 188.333 -44.5 271s-75 148.834 -136 198.501s-138.5 74.5 -232.5 74.5
s-171.667 -24.833 -233 -74.5s-107 -115.834 -137 -198.501s-45 -173 -45 -271s15 -188.167 45 -270.5s75.667 -148.166 137 -197.499s139 -74 233 -74zM725 1741l233 461h315l-309 -461h-239z" />
    <glyph glyph-name="uni00F4" unicode="&#xf4;" horiz-adv-x="1696" 
d="M848 -31c-144 0 -269.667 33 -377 99s-190.666 158.5 -249.999 277.5s-89 257.5 -89 415.5c0 159.333 29.667 298.666 89 417.999s142.666 212 249.999 278s233 99 377 99c144.667 0 270.5 -33 377.5 -99s190.167 -158.667 249.5 -278s89 -258.666 89 -417.999
c0 -158 -29.667 -296.5 -89 -415.5s-142.5 -211.5 -249.5 -277.5s-232.833 -99 -377.5 -99zM849 220c94 0 171.5 24.667 232.5 74s106.333 115.166 136 197.499s44.5 172.5 44.5 270.5s-14.833 188.333 -44.5 271s-75 148.834 -136 198.501s-138.5 74.5 -232.5 74.5
s-171.667 -24.833 -233 -74.5s-107 -115.834 -137 -198.501s-45 -173 -45 -271s15 -188.167 45 -270.5s75.667 -148.166 137 -197.499s139 -74 233 -74zM642 1720l206 268l205 -268h271v15l-352 424h-249l-351 -424v-15h270z" />
    <glyph glyph-name="uni00F5" unicode="&#xf5;" horiz-adv-x="1673" 
d="M603 1722l-201.002 6.00195c0 110.667 29.833 199 89.5 265s133.5 99 221.5 99c54.667 0 100.834 -11.167 138.501 -33.5s73.667 -44.833 108 -67.5s73.833 -34 118.5 -34c38.667 0 70 14.667 94 44s36.333 65.666 37 108.999l197 -13
c0 -111.333 -30 -198.833 -90 -262.5s-133.667 -95.834 -221 -96.501c-47.333 0 -86.5 6.83301 -117.5 20.5s-58.5 29.5 -82.5 47.5s-48.667 33.833 -74 47.5s-55.666 20.5 -90.999 20.5c-36.667 0 -67 -14.5 -91 -43.5s-36 -65.167 -36 -108.5zM849.998 -30.998
c-144 0 -269.667 33 -377 99s-190.666 158.5 -249.999 277.5s-89 257.5 -89 415.5c0 159.333 29.667 298.666 89 417.999s142.666 212 249.999 278s233 99 377 99c144.667 0 270.5 -33 377.5 -99s190.167 -158.667 249.5 -278s89 -258.666 89 -417.999
c0 -158 -29.667 -296.5 -89 -415.5s-142.5 -211.5 -249.5 -277.5s-232.833 -99 -377.5 -99zM850.998 220.002c94 0 171.5 24.667 232.5 74s106.333 115.166 136 197.499s44.5 172.5 44.5 270.5s-14.833 188.333 -44.5 271s-75 148.834 -136 198.501s-138.5 74.5 -232.5 74.5
s-171.667 -24.833 -233 -74.5s-107 -115.834 -137 -198.501s-45 -173 -45 -271s15 -188.167 45 -270.5s75.667 -148.166 137 -197.499s139 -74 233 -74z" />
    <glyph glyph-name="uni00F6" unicode="&#xf6;" horiz-adv-x="1696" 
d="M848 -31c-144 0 -269.667 33 -377 99s-190.666 158.5 -249.999 277.5s-89 257.5 -89 415.5c0 159.333 29.667 298.666 89 417.999s142.666 212 249.999 278s233 99 377 99c144.667 0 270.5 -33 377.5 -99s190.167 -158.667 249.5 -278s89 -258.666 89 -417.999
c0 -158 -29.667 -296.5 -89 -415.5s-142.5 -211.5 -249.5 -277.5s-232.833 -99 -377.5 -99zM849 220c94 0 171.5 24.667 232.5 74s106.333 115.166 136 197.499s44.5 172.5 44.5 270.5s-14.833 188.333 -44.5 271s-75 148.834 -136 198.501s-138.5 74.5 -232.5 74.5
s-171.667 -24.833 -233 -74.5s-107 -115.834 -137 -198.501s-45 -173 -45 -271s15 -188.167 45 -270.5s75.667 -148.166 137 -197.499s139 -74 233 -74zM554 1777c-46.667 0 -87.834 17.333 -123.501 52s-53.5 75.334 -53.5 122.001c0 49.333 17.833 90.833 53.5 124.5
s76.834 50.5 123.501 50.5c50 0 91.833 -16.833 125.5 -50.5s50.5 -75.167 50.5 -124.5c0 -46.667 -16.833 -87.334 -50.5 -122.001s-75.5 -52 -125.5 -52zM1142 1777c-46.667 0 -87.834 17.333 -123.501 52s-53.5 75.334 -53.5 122.001c0 49.333 17.833 90.833 53.5 124.5
s76.834 50.5 123.501 50.5c50 0 91.833 -16.833 125.5 -50.5s50.5 -75.167 50.5 -124.5c0 -46.667 -16.833 -87.334 -50.5 -122.001s-75.5 -52 -125.5 -52z" />
    <glyph glyph-name="uni00F7" unicode="&#xf7;" horiz-adv-x="1837" 
d="M1578 938v-263h-1320v263h1320zM918 1138c-55.333 0 -102.5 19.667 -141.5 59s-58.5 86.666 -58.5 141.999c0 54 19.5 100.333 58.5 139s86.167 58 141.5 58c54 0 100.333 -19.333 139 -58s58 -85 58 -139c0 -55.333 -19.333 -102.666 -58 -141.999s-85 -59 -139 -59z
M918 77c-55.333 0 -102.5 19.5 -141.5 58.5s-58.5 86.5 -58.5 142.5c0 53.333 19.5 99.333 58.5 138s86.167 58 141.5 58c54 0 100.333 -19.333 139 -58s58 -84.667 58 -138c0 -56 -19.333 -103.5 -58 -142.5s-85 -58.5 -139 -58.5z" />
    <glyph glyph-name="uni00F8" unicode="&#xf8;" horiz-adv-x="1698" 
d="M390 -89l-166.999 114.001l108 158c-63.333 69.333 -112.333 152.833 -147 250.5s-52 206.5 -52 326.5c0 159.333 29.667 298.666 89 417.999s142.666 212 249.999 278s233 99 377 99c134 0 253.333 -29.333 358 -88l100 146l167 -114l-108 -158
c63.333 -70 112.333 -154.167 147 -252.5s52 -207.833 52 -328.5c0 -158 -29.667 -296.5 -89 -415.5s-142.5 -211.5 -249.5 -277.5s-232.833 -99 -377.5 -99c-134 0 -253.667 29.333 -359 88zM849.001 219.001c94 0 171.5 24.6689 232.5 74.002s106.333 115.166 136 197.499
s44.5 172.5 44.5 270.5c0 127.333 -23 236.666 -69 327.999l-553 -812c59.333 -38.667 129 -58 209 -58zM503.001 435.003l553 812.001c-59.333 38.667 -128.333 58 -207 58c-94 0 -171.667 -24.833 -233 -74.5s-107 -115.834 -137 -198.501s-45 -173 -45 -271
c0 -127.333 23 -236 69 -326z" />
    <glyph glyph-name="uni00F9" unicode="&#xf9;" horiz-adv-x="1674" 
d="M1174 637l-0.000976562 898.999h300v-1536h-294v266h-16c-35.333 -82 -91.833 -150.167 -169.5 -204.5s-174.167 -81.5 -289.5 -81.5c-147.333 0 -268.166 48.833 -362.499 146.5s-141.5 241.834 -141.5 432.501v977h299v-941c0 -104.667 29 -188 87 -250
s133.333 -93 226 -93c56 0 111.833 14 167.5 42s102 70.5 139 127.5s55.167 128.833 54.5 215.5zM961.999 1741h-239l-309 461h315z" />
    <glyph glyph-name="uni00FA" unicode="&#xfa;" horiz-adv-x="1674" 
d="M1174 637l-0.000976562 898.999h300v-1536h-294v266h-16c-35.333 -82 -91.833 -150.167 -169.5 -204.5s-174.167 -81.5 -289.5 -81.5c-147.333 0 -268.166 48.833 -362.499 146.5s-141.5 241.834 -141.5 432.501v977h299v-941c0 -104.667 29 -188 87 -250
s133.333 -93 226 -93c56 0 111.833 14 167.5 42s102 70.5 139 127.5s55.167 128.833 54.5 215.5zM715.999 1741l233 461h315l-309 -461h-239z" />
    <glyph glyph-name="uni00FB" unicode="&#xfb;" horiz-adv-x="1674" 
d="M1174 637l-0.000976562 898.999h300v-1536h-294v266h-16c-35.333 -82 -91.833 -150.167 -169.5 -204.5s-174.167 -81.5 -289.5 -81.5c-147.333 0 -268.166 48.833 -362.499 146.5s-141.5 241.834 -141.5 432.501v977h299v-941c0 -104.667 29 -188 87 -250
s133.333 -93 226 -93c56 0 111.833 14 167.5 42s102 70.5 139 127.5s55.167 128.833 54.5 215.5zM633.999 1720l206 268l205 -268h271v15l-352 424h-249l-351 -424v-15h270z" />
    <glyph glyph-name="uni00FC" unicode="&#xfc;" horiz-adv-x="1674" 
d="M1174 637l-0.000976562 898.999h300v-1536h-294v266h-16c-35.333 -82 -91.833 -150.167 -169.5 -204.5s-174.167 -81.5 -289.5 -81.5c-147.333 0 -268.166 48.833 -362.499 146.5s-141.5 241.834 -141.5 432.501v977h299v-941c0 -104.667 29 -188 87 -250
s133.333 -93 226 -93c56 0 111.833 14 167.5 42s102 70.5 139 127.5s55.167 128.833 54.5 215.5zM545.999 1777c-46.667 0 -87.834 17.333 -123.501 52s-53.5 75.334 -53.5 122.001c0 49.333 17.833 90.833 53.5 124.5s76.834 50.5 123.501 50.5
c50 0 91.833 -16.833 125.5 -50.5s50.5 -75.167 50.5 -124.5c0 -46.667 -16.833 -87.334 -50.5 -122.001s-75.5 -52 -125.5 -52zM1134 1777c-46.667 0 -87.834 17.333 -123.501 52s-53.5 75.334 -53.5 122.001c0 49.333 17.833 90.833 53.5 124.5s76.834 50.5 123.501 50.5
c50 0 91.833 -16.833 125.5 -50.5s50.5 -75.167 50.5 -124.5c0 -46.667 -16.833 -87.334 -50.5 -122.001s-75.5 -52 -125.5 -52z" />
    <glyph glyph-name="uni00FD" unicode="&#xfd;" horiz-adv-x="1595" 
d="M379 -597c-46.667 0 -87.668 4 -123.001 12s-61 15.667 -77 23l72 248c82.667 -22 151.834 -23.667 207.501 -5s102.167 78 139.5 178l44 121l-562 1556h320l389 -1192h16l389 1192h321l-640 -1760c-43.333 -119.333 -105.833 -211.333 -187.5 -276
s-184.5 -97 -308.5 -97zM673.999 1741l233 461h315l-309 -461h-239z" />
    <glyph glyph-name="uni00FE" unicode="&#xfe;" horiz-adv-x="1719" 
d="M201 2048h299v-734h19c17.333 30 41.833 63.833 73.5 101.5s75.334 70.5 131.001 98.5s128.167 42 217.5 42c123.333 0 233.666 -31.333 330.999 -94s174 -153 230 -271s84 -260 84 -426s-27.667 -308.333 -83 -427s-131.5 -209.667 -228.5 -273s-207.5 -95 -331.5 -95
c-87.333 0 -159 13.833 -215 41.5s-100.333 60.667 -133 99s-58 72.833 -76 103.5h-19v-790h-299v2624zM1294 768c0 154 -34.165 281.498 -102.498 382.498s-171.5 151.5 -309.5 151.5c-134.667 0 -234.834 -49.667 -300.501 -149s-98.5 -227.666 -98.5 -384.999
s33.167 -287.166 99.5 -389.499s166.166 -153.5 299.499 -153.5c91.333 0 167.5 23.667 228.5 71s106.833 112 137.5 194s46 174.667 46 278z" />
    <glyph glyph-name="uni00FF" unicode="&#xff;" horiz-adv-x="1595" 
d="M379 -597c-46.667 0 -87.668 4 -123.001 12s-61 15.667 -77 23l72 248c82.667 -22 151.834 -23.667 207.501 -5s102.167 78 139.5 178l44 121l-562 1556h320l389 -1192h16l389 1192h321l-640 -1760c-43.333 -119.333 -105.833 -211.333 -187.5 -276
s-184.5 -97 -308.5 -97zM502.999 1777c-46.667 0 -87.834 17.333 -123.501 52s-53.5 75.334 -53.5 122.001c0 49.333 17.833 90.833 53.5 124.5s76.834 50.5 123.501 50.5c50 0 91.833 -16.833 125.5 -50.5s50.5 -75.167 50.5 -124.5
c0 -46.667 -16.833 -87.334 -50.5 -122.001s-75.5 -52 -125.5 -52zM1091 1777c-46.667 0 -87.834 17.333 -123.501 52s-53.5 75.334 -53.5 122.001c0 49.333 17.833 90.833 53.5 124.5s76.834 50.5 123.501 50.5c50 0 91.833 -16.833 125.5 -50.5s50.5 -75.167 50.5 -124.5
c0 -46.667 -16.833 -87.334 -50.5 -122.001s-75.5 -52 -125.5 -52z" />
    <glyph glyph-name="uni0100" unicode="&#x100;" horiz-adv-x="1971" 
d="M398 0h-328l737 2048h357l737 -2048h-328l-187 542h-800zM676 802h620l-302 874h-16zM1460 2560v-210h-949v210h949z" />
    <glyph glyph-name="uni0101" unicode="&#x101;" horiz-adv-x="1603" 
d="M648 -34c-97.333 0 -185.167 17.998 -263.5 53.998s-140.5 88.833 -186.5 158.5s-69 154.834 -69 255.501c0 87.333 16.833 159 50.5 215s78.667 100.333 135 133s119.5 57.167 189.5 73.5s141.333 28.833 214 37.5l223.5 26.5c57 7 98.667 18.5 125 34.5
s39.5 42 39.5 78v7c0 87.333 -24.5 155 -73.5 203s-121.833 72 -218.5 72c-100.667 0 -179.834 -22 -237.501 -66s-97.5 -93.333 -119.5 -148l-281 64c50 140 133.5 240.333 250.5 301s244.833 91 383.5 91c61.333 0 126.333 -7.16699 195 -21.5
s133.5 -40.666 194.5 -78.999s110.667 -92.5 149 -162.5s57.5 -161 57.5 -273v-1020h-292v210h-12c-28.667 -57.333 -79.667 -112.333 -153 -165s-173.666 -79 -300.999 -79zM712.999 205.998c83.333 0 154.333 16.332 213 48.999s103.5 75.5 134.5 128.5
s46.5 109.833 46.5 170.5v198c-14 -14 -44.667 -26.333 -92 -37s-97.333 -19.667 -150 -27l-128 -18c-86.667 -11.333 -160.834 -34.166 -222.501 -68.499s-92.5 -91.5 -92.5 -171.5c0 -74 27.333 -129.833 82 -167.5s124.334 -56.5 209.001 -56.5zM1300 2048v-210h-949v210
h949z" />
    <glyph glyph-name="uni0102" unicode="&#x102;" horiz-adv-x="1971" 
d="M398 0h-328l737 2048h357l737 -2048h-328l-187 542h-800zM676 802h620l-302 874h-16zM1182 2568h245.999c0 -112.667 -39.833 -204.167 -119.5 -274.5s-187.167 -105.5 -322.5 -105.5c-134.667 0 -241.667 35.167 -321 105.5s-119 161.833 -119 274.5h245
c0 -50 14.833 -94.167 44.5 -132.5s79.834 -57.5 150.501 -57.5c70 0 120.167 19 150.5 57s45.5 82.333 45.5 133z" />
    <glyph glyph-name="uni0103" unicode="&#x103;" horiz-adv-x="1603" 
d="M648 -34c-97.333 0 -185.167 17.998 -263.5 53.998s-140.5 88.833 -186.5 158.5s-69 154.834 -69 255.501c0 87.333 16.833 159 50.5 215s78.667 100.333 135 133s119.5 57.167 189.5 73.5s141.333 28.833 214 37.5l223.5 26.5c57 7 98.667 18.5 125 34.5
s39.5 42 39.5 78v7c0 87.333 -24.5 155 -73.5 203s-121.833 72 -218.5 72c-100.667 0 -179.834 -22 -237.501 -66s-97.5 -93.333 -119.5 -148l-281 64c50 140 133.5 240.333 250.5 301s244.833 91 383.5 91c61.333 0 126.333 -7.16699 195 -21.5
s133.5 -40.666 194.5 -78.999s110.667 -92.5 149 -162.5s57.5 -161 57.5 -273v-1020h-292v210h-12c-28.667 -57.333 -79.667 -112.333 -153 -165s-173.666 -79 -300.999 -79zM712.999 205.998c83.333 0 154.333 16.332 213 48.999s103.5 75.5 134.5 128.5
s46.5 109.833 46.5 170.5v198c-14 -14 -44.667 -26.333 -92 -37s-97.333 -19.667 -150 -27l-128 -18c-86.667 -11.333 -160.834 -34.166 -222.501 -68.499s-92.5 -91.5 -92.5 -171.5c0 -74 27.333 -129.833 82 -167.5s124.334 -56.5 209.001 -56.5zM1022 2056h245.999
c0 -112.667 -39.833 -204.167 -119.5 -274.5s-187.167 -105.5 -322.5 -105.5c-134.667 0 -241.667 35.167 -321 105.5s-119 161.833 -119 274.5h245c0 -50 14.833 -94.167 44.5 -132.5s79.834 -57.5 150.501 -57.5c70 0 120.167 19 150.5 57s45.5 82.333 45.5 133z" />
    <glyph glyph-name="uni0104" unicode="&#x104;" horiz-adv-x="1971" 
d="M398 0h-328l737 2048h357l737 -2048h-328l-187 542h-800zM676 802h620l-302 874h-16zM1710 -591c-84 0 -153.827 22.666 -209.494 67.999s-86.167 110.666 -91.5 195.999c-4.66699 76.667 17.166 152.834 65.499 228.501s131.166 139.834 248.499 192.501l178 -94
c-60.667 -38.667 -113.5 -80.167 -158.5 -124.5s-67.5 -94.5 -67.5 -150.5c0 -30.667 7.66699 -54.667 23 -72s41.666 -26 78.999 -26c27.333 0 51.666 3.66699 72.999 11s38.666 14.333 51.999 21l26 -190c-22.667 -14 -52.334 -27.5 -89.001 -40.5
s-79.667 -19.5 -129 -19.5z" />
    <glyph glyph-name="uni0105" unicode="&#x105;" horiz-adv-x="1603" 
d="M648 -34c-97.333 0 -185.167 17.998 -263.5 53.998s-140.5 88.833 -186.5 158.5s-69 154.834 -69 255.501c0 87.333 16.833 159 50.5 215s78.667 100.333 135 133s119.5 57.167 189.5 73.5s141.333 28.833 214 37.5l223.5 26.5c57 7 98.667 18.5 125 34.5
s39.5 42 39.5 78v7c0 87.333 -24.5 155 -73.5 203s-121.833 72 -218.5 72c-100.667 0 -179.834 -22 -237.501 -66s-97.5 -93.333 -119.5 -148l-281 64c50 140 133.5 240.333 250.5 301s244.833 91 383.5 91c61.333 0 126.333 -7.16699 195 -21.5
s133.5 -40.666 194.5 -78.999s110.667 -92.5 149 -162.5s57.5 -161 57.5 -273v-1020h-292v210h-12c-28.667 -57.333 -79.667 -112.333 -153 -165s-173.666 -79 -300.999 -79zM712.999 205.998c83.333 0 154.333 16.332 213 48.999s103.5 75.5 134.5 128.5
s46.5 109.833 46.5 170.5v198c-14 -14 -44.667 -26.333 -92 -37s-97.333 -19.667 -150 -27l-128 -18c-86.667 -11.333 -160.834 -34.166 -222.501 -68.499s-92.5 -91.5 -92.5 -171.5c0 -74 27.333 -129.833 82 -167.5s124.334 -56.5 209.001 -56.5zM1215 -591.003
c-84 0 -153.827 22.666 -209.494 67.999s-86.167 110.666 -91.5 195.999c-4.66699 76.667 17.166 152.834 65.499 228.501s131.166 139.834 248.499 192.501l178 -94c-60.667 -38.667 -113.5 -80.167 -158.5 -124.5s-67.5 -94.5 -67.5 -150.5
c0 -30.667 7.66699 -54.667 23 -72s41.666 -26 78.999 -26c27.333 0 51.666 3.66699 72.999 11s38.666 14.333 51.999 21l26 -190c-22.667 -14 -52.334 -27.5 -89.001 -40.5s-79.667 -19.5 -129 -19.5z" />
    <glyph glyph-name="uni0106" unicode="&#x106;" horiz-adv-x="2071" 
d="M1926 1382l-312 0.00195312c-25.333 132.667 -87.5 234.5 -186.5 305.5s-213.833 106.5 -344.5 106.5c-117.333 0 -222.666 -29.667 -315.999 -89s-166.833 -146.166 -220.5 -260.499s-80.5 -254.5 -80.5 -420.5c0 -166.667 27 -307.334 81 -422.001
s127.5 -201.334 220.5 -260.001s197.833 -88 314.5 -88c129.333 0 243.666 35 342.999 105s162.333 170.333 189 301l312 -1c-22 -134.667 -71.333 -253.667 -148 -357s-174.667 -184.166 -294 -242.499s-254 -87.5 -404 -87.5c-177.333 0 -335.333 42.167 -474 126.5
s-247.834 205.166 -327.501 362.499s-119.5 345 -119.5 563c0 218.667 40 406.5 120 563.5s189.333 277.667 328 362s296.334 126.5 473.001 126.5c144.667 0 276.5 -27.333 395.5 -82s218 -133.834 297 -237.501s130.167 -228.5 153.5 -374.5zM957 2253l233 461h315
l-309 -461h-239z" />
    <glyph glyph-name="uni0107" unicode="&#x107;" horiz-adv-x="1599" 
d="M848 -31c-148.667 0 -276.501 33.8311 -383.501 101.498s-189.167 161.167 -246.5 280.5s-86 256 -86 410c0 156.667 29.333 294.667 88 414s141.5 212.666 248.5 279.999s232.5 101 376.5 101c116.667 0 220.667 -21.5 312 -64.5s165.166 -103.167 221.499 -180.5
s89.833 -167.666 100.5 -270.999h-291c-16 72 -52.5 134 -109.5 186s-133.167 78 -228.5 78c-124.667 0 -225.167 -48.167 -301.5 -144.5s-114.5 -226.833 -114.5 -391.5c0 -167.333 37.667 -300.166 113 -398.499s176.333 -147.5 303 -147.5
c85.333 0 158.333 23.333 219 70s100.334 111.334 119.001 194.001h291c-10.667 -99.333 -43 -188 -97 -266s-126.167 -139.333 -216.5 -184s-196.166 -67 -317.499 -67zM719.999 1741l233 461h315l-309 -461h-239z" />
    <glyph glyph-name="uni0108" unicode="&#x108;" horiz-adv-x="2071" 
d="M1926 1382l-312 0.00195312c-25.333 132.667 -87.5 234.5 -186.5 305.5s-213.833 106.5 -344.5 106.5c-117.333 0 -222.666 -29.667 -315.999 -89s-166.833 -146.166 -220.5 -260.499s-80.5 -254.5 -80.5 -420.5c0 -166.667 27 -307.334 81 -422.001
s127.5 -201.334 220.5 -260.001s197.833 -88 314.5 -88c129.333 0 243.666 35 342.999 105s162.333 170.333 189 301l312 -1c-22 -134.667 -71.333 -253.667 -148 -357s-174.667 -184.166 -294 -242.499s-254 -87.5 -404 -87.5c-177.333 0 -335.333 42.167 -474 126.5
s-247.834 205.166 -327.501 362.499s-119.5 345 -119.5 563c0 218.667 40 406.5 120 563.5s189.333 277.667 328 362s296.334 126.5 473.001 126.5c144.667 0 276.5 -27.333 395.5 -82s218 -133.834 297 -237.501s130.167 -228.5 153.5 -374.5zM874 2232l206 268l205 -268
h271v15l-352 424h-249l-351 -424v-15h270z" />
    <glyph glyph-name="uni0109" unicode="&#x109;" horiz-adv-x="1599" 
d="M848 -31c-148.667 0 -276.501 33.8311 -383.501 101.498s-189.167 161.167 -246.5 280.5s-86 256 -86 410c0 156.667 29.333 294.667 88 414s141.5 212.666 248.5 279.999s232.5 101 376.5 101c116.667 0 220.667 -21.5 312 -64.5s165.166 -103.167 221.499 -180.5
s89.833 -167.666 100.5 -270.999h-291c-16 72 -52.5 134 -109.5 186s-133.167 78 -228.5 78c-124.667 0 -225.167 -48.167 -301.5 -144.5s-114.5 -226.833 -114.5 -391.5c0 -167.333 37.667 -300.166 113 -398.499s176.333 -147.5 303 -147.5
c85.333 0 158.333 23.333 219 70s100.334 111.334 119.001 194.001h291c-10.667 -99.333 -43 -188 -97 -266s-126.167 -139.333 -216.5 -184s-196.166 -67 -317.499 -67zM636.999 1720l206 268l205 -268h271v15l-352 424h-249l-351 -424v-15h270z" />
    <glyph glyph-name="uni010A" unicode="&#x10a;" horiz-adv-x="2071" 
d="M1926 1382l-312 0.00195312c-25.333 132.667 -87.5 234.5 -186.5 305.5s-213.833 106.5 -344.5 106.5c-117.333 0 -222.666 -29.667 -315.999 -89s-166.833 -146.166 -220.5 -260.499s-80.5 -254.5 -80.5 -420.5c0 -166.667 27 -307.334 81 -422.001
s127.5 -201.334 220.5 -260.001s197.833 -88 314.5 -88c129.333 0 243.666 35 342.999 105s162.333 170.333 189 301l312 -1c-22 -134.667 -71.333 -253.667 -148 -357s-174.667 -184.166 -294 -242.499s-254 -87.5 -404 -87.5c-177.333 0 -335.333 42.167 -474 126.5
s-247.834 205.166 -327.501 362.499s-119.5 345 -119.5 563c0 218.667 40 406.5 120 563.5s189.333 277.667 328 362s296.334 126.5 473.001 126.5c144.667 0 276.5 -27.333 395.5 -82s218 -133.834 297 -237.501s130.167 -228.5 153.5 -374.5zM1080 2285
c-52 0 -96.5 17.5 -133.5 52.5s-55.5 76.833 -55.5 125.5c0 49.333 18.5 91.5 55.5 126.5s81.5 52.5 133.5 52.5c51.333 0 95.666 -17.5 132.999 -52.5s56 -77.167 56 -126.5c0 -48.667 -18.667 -90.5 -56 -125.5s-81.666 -52.5 -132.999 -52.5z" />
    <glyph glyph-name="uni010B" unicode="&#x10b;" horiz-adv-x="1599" 
d="M848 -31c-148.667 0 -276.501 33.8311 -383.501 101.498s-189.167 161.167 -246.5 280.5s-86 256 -86 410c0 156.667 29.333 294.667 88 414s141.5 212.666 248.5 279.999s232.5 101 376.5 101c116.667 0 220.667 -21.5 312 -64.5s165.166 -103.167 221.499 -180.5
s89.833 -167.666 100.5 -270.999h-291c-16 72 -52.5 134 -109.5 186s-133.167 78 -228.5 78c-124.667 0 -225.167 -48.167 -301.5 -144.5s-114.5 -226.833 -114.5 -391.5c0 -167.333 37.667 -300.166 113 -398.499s176.333 -147.5 303 -147.5
c85.333 0 158.333 23.333 219 70s100.334 111.334 119.001 194.001h291c-10.667 -99.333 -43 -188 -97 -266s-126.167 -139.333 -216.5 -184s-196.166 -67 -317.499 -67zM842.999 1773c-52 0 -96.5 17.5 -133.5 52.5s-55.5 76.833 -55.5 125.5
c0 49.333 18.5 91.5 55.5 126.5s81.5 52.5 133.5 52.5c51.333 0 95.666 -17.5 132.999 -52.5s56 -77.167 56 -126.5c0 -48.667 -18.667 -90.5 -56 -125.5s-81.666 -52.5 -132.999 -52.5z" />
    <glyph glyph-name="uni010C" unicode="&#x10c;" horiz-adv-x="2071" 
d="M1926 1382l-312 0.00195312c-25.333 132.667 -87.5 234.5 -186.5 305.5s-213.833 106.5 -344.5 106.5c-117.333 0 -222.666 -29.667 -315.999 -89s-166.833 -146.166 -220.5 -260.499s-80.5 -254.5 -80.5 -420.5c0 -166.667 27 -307.334 81 -422.001
s127.5 -201.334 220.5 -260.001s197.833 -88 314.5 -88c129.333 0 243.666 35 342.999 105s162.333 170.333 189 301l312 -1c-22 -134.667 -71.333 -253.667 -148 -357s-174.667 -184.166 -294 -242.499s-254 -87.5 -404 -87.5c-177.333 0 -335.333 42.167 -474 126.5
s-247.834 205.166 -327.501 362.499s-119.5 345 -119.5 563c0 218.667 40 406.5 120 563.5s189.333 277.667 328 362s296.334 126.5 473.001 126.5c144.667 0 276.5 -27.333 395.5 -82s218 -133.834 297 -237.501s130.167 -228.5 153.5 -374.5zM874 2671l206 -268l205 268
h271v-15l-352 -424h-249l-351 424v15h270z" />
    <glyph glyph-name="uni010D" unicode="&#x10d;" horiz-adv-x="1599" 
d="M848 -31c-148.667 0 -276.501 33.8311 -383.501 101.498s-189.167 161.167 -246.5 280.5s-86 256 -86 410c0 156.667 29.333 294.667 88 414s141.5 212.666 248.5 279.999s232.5 101 376.5 101c116.667 0 220.667 -21.5 312 -64.5s165.166 -103.167 221.499 -180.5
s89.833 -167.666 100.5 -270.999h-291c-16 72 -52.5 134 -109.5 186s-133.167 78 -228.5 78c-124.667 0 -225.167 -48.167 -301.5 -144.5s-114.5 -226.833 -114.5 -391.5c0 -167.333 37.667 -300.166 113 -398.499s176.333 -147.5 303 -147.5
c85.333 0 158.333 23.333 219 70s100.334 111.334 119.001 194.001h291c-10.667 -99.333 -43 -188 -97 -266s-126.167 -139.333 -216.5 -184s-196.166 -67 -317.499 -67zM636.999 2159l206 -268l205 268h271v-15l-352 -424h-249l-351 424v15h270z" />
    <glyph glyph-name="uni010E" unicode="&#x10e;" horiz-adv-x="2032" 
d="M888 0l-663 -0.00195312v2048h684c201.333 0 373.833 -40.833 517.5 -122.5s254 -198.667 331 -351s115.5 -334.833 115.5 -547.5c0 -213.333 -38.667 -396.666 -116 -549.999s-189.5 -271.166 -336.5 -353.499s-324.5 -123.5 -532.5 -123.5zM534 269.998h337
c233.333 0 408 65.5 524 196.5s174 317.833 174 560.5c0 241.333 -57.167 426.833 -171.5 556.5s-283.5 194.5 -507.5 194.5h-356v-1508zM636 2671l206 -268l205 268h271v-15l-352 -424h-249l-351 424v15h270z" />
    <glyph glyph-name="uni010F" unicode="&#x10f;" horiz-adv-x="1966" 
d="M778 -30c-124 0 -234.329 31.667 -330.996 95s-172.667 154.5 -228 273.5s-83 261.167 -83 426.5c0 166 27.833 308 83.5 426s132.167 208.333 229.5 271s207.666 94 330.999 94c95.333 0 172.166 -15.833 230.499 -47.5s103.666 -68.5 135.999 -110.5
s57.5 -79 75.5 -111h18v761h299v-2048h-292v239h-25c-18 -32.667 -43.833 -70 -77.5 -112s-79.834 -78.667 -138.501 -110s-134.667 -47 -228 -47zM844.004 225c129.333 0 228.5 50.167 297.5 150.5s103.5 231.166 103.5 392.499c0 160.667 -34.167 289.834 -102.5 387.501
s-167.833 146.5 -298.5 146.5c-90 0 -165 -23.333 -225 -70s-105.167 -110.167 -135.5 -190.5s-45.5 -171.5 -45.5 -273.5c0 -102.667 15.333 -195 46 -277s76.167 -146.833 136.5 -194.5s134.833 -71.5 223.5 -71.5zM2000 2048l0.000976562 -153
c-0.666992 -95.333 -15 -193.5 -43 -294.5s-70.667 -189.5 -128 -265.5l-209 61c33.333 74.667 61.666 153.5 84.999 236.5s35 166.833 35 251.5v164h260z" />
    <glyph glyph-name="uni0110" unicode="&#x110;" horiz-adv-x="2032" 
d="M888 0l-663 -0.00195312v2048h684c201.333 0 373.833 -40.833 517.5 -122.5s254 -198.667 331 -351s115.5 -334.833 115.5 -547.5c0 -213.333 -38.667 -396.666 -116 -549.999s-189.5 -271.166 -336.5 -353.499s-324.5 -123.5 -532.5 -123.5zM534 269.998h337
c233.333 0 408 65.5 524 196.5s174 317.833 174 560.5c0 241.333 -57.167 426.833 -171.5 556.5s-283.5 194.5 -507.5 194.5h-356v-1508zM-81 959.998v207h919v-207h-919z" />
    <glyph glyph-name="uni0111" unicode="&#x111;" horiz-adv-x="1762" 
d="M776 -30c-124 0 -234.329 31.667 -330.996 95s-172.667 154.5 -228 273.5s-83 261.167 -83 426.5c0 166 27.833 308 83.5 426s132.167 208.333 229.5 271s207.666 94 330.999 94c95.333 0 172.166 -15.833 230.499 -47.5s103.666 -68.5 135.999 -110.5
s57.5 -79 75.5 -111h18v761h299v-2048h-292v239h-25c-18 -32.667 -43.833 -70 -77.5 -112s-79.834 -78.667 -138.501 -110s-134.667 -47 -228 -47zM842.004 225c129.333 0 228.5 50.167 297.5 150.5s103.5 231.166 103.5 392.499c0 160.667 -34.167 289.834 -102.5 387.501
s-167.833 146.5 -298.5 146.5c-90 0 -165 -23.333 -225 -70s-105.167 -110.167 -135.5 -190.5s-45.5 -171.5 -45.5 -273.5c0 -102.667 15.333 -195 46 -277s76.167 -146.833 136.5 -194.5s134.833 -71.5 223.5 -71.5zM823.004 1659v207h919v-207h-919z" />
    <glyph glyph-name="uni0112" unicode="&#x112;" horiz-adv-x="1698" 
d="M225 0v2048h1284v-266h-975v-624h908v-265h-908v-627h987v-266h-1296zM1341 2560v-210h-949v210h949z" />
    <glyph glyph-name="uni0113" unicode="&#x113;" horiz-adv-x="1654" 
d="M863 -31c-150.667 0 -280.667 32.667 -390 98s-193.5 157.166 -252.5 275.499s-88.5 256.833 -88.5 415.5c0 157.333 29.5 296 88.5 416s141.667 213.667 248 281s230.833 101 373.5 101c116 0 225.833 -25.833 329.5 -77.5s188 -134 253 -247s97.5 -262.167 97.5 -447.5
v-106h-1092c4 -148 45.667 -262 125 -342s183 -120 311 -120c85.333 0 159 18.333 221 55s106.333 91.334 133 164.001l283 -51c-34 -124.667 -107.333 -225 -220 -301s-252.667 -114 -420 -114zM431 902l798 0.00195312c-0.666992 117.333 -36 214.5 -106 291.5
s-163 115.5 -279 115.5c-80.667 0 -151.167 -18.833 -211.5 -56.5s-108 -87.334 -143 -149.001s-54.5 -128.834 -58.5 -201.501zM1305 2048v-210h-949v210h949z" />
    <glyph glyph-name="uni0114" unicode="&#x114;" horiz-adv-x="1698" 
d="M225 0v2048h1284v-266h-975v-624h908v-265h-908v-627h987v-266h-1296zM1063 2568h245.999c0 -112.667 -39.833 -204.167 -119.5 -274.5s-187.167 -105.5 -322.5 -105.5c-134.667 0 -241.667 35.167 -321 105.5s-119 161.833 -119 274.5h245
c0 -50 14.833 -94.167 44.5 -132.5s79.834 -57.5 150.501 -57.5c70 0 120.167 19 150.5 57s45.5 82.333 45.5 133z" />
    <glyph glyph-name="uni0115" unicode="&#x115;" horiz-adv-x="1654" 
d="M863 -31c-150.667 0 -280.667 32.667 -390 98s-193.5 157.166 -252.5 275.499s-88.5 256.833 -88.5 415.5c0 157.333 29.5 296 88.5 416s141.667 213.667 248 281s230.833 101 373.5 101c116 0 225.833 -25.833 329.5 -77.5s188 -134 253 -247s97.5 -262.167 97.5 -447.5
v-106h-1092c4 -148 45.667 -262 125 -342s183 -120 311 -120c85.333 0 159 18.333 221 55s106.333 91.334 133 164.001l283 -51c-34 -124.667 -107.333 -225 -220 -301s-252.667 -114 -420 -114zM431 902l798 0.00195312c-0.666992 117.333 -36 214.5 -106 291.5
s-163 115.5 -279 115.5c-80.667 0 -151.167 -18.833 -211.5 -56.5s-108 -87.334 -143 -149.001s-54.5 -128.834 -58.5 -201.501zM1027 2056h245.999c0 -112.667 -39.833 -204.167 -119.5 -274.5s-187.167 -105.5 -322.5 -105.5c-134.667 0 -241.667 35.167 -321 105.5
s-119 161.833 -119 274.5h245c0 -50 14.833 -94.167 44.5 -132.5s79.834 -57.5 150.501 -57.5c70 0 120.167 19 150.5 57s45.5 82.333 45.5 133z" />
    <glyph glyph-name="uni0116" unicode="&#x116;" horiz-adv-x="1698" 
d="M225 0v2048h1284v-266h-975v-624h908v-265h-908v-627h987v-266h-1296zM867 2285c-52 0 -96.5 17.5 -133.5 52.5s-55.5 76.833 -55.5 125.5c0 49.333 18.5 91.5 55.5 126.5s81.5 52.5 133.5 52.5c51.333 0 95.666 -17.5 132.999 -52.5s56 -77.167 56 -126.5
c0 -48.667 -18.667 -90.5 -56 -125.5s-81.666 -52.5 -132.999 -52.5z" />
    <glyph glyph-name="uni0117" unicode="&#x117;" horiz-adv-x="1654" 
d="M863 -31c-150.667 0 -280.667 32.667 -390 98s-193.5 157.166 -252.5 275.499s-88.5 256.833 -88.5 415.5c0 157.333 29.5 296 88.5 416s141.667 213.667 248 281s230.833 101 373.5 101c116 0 225.833 -25.833 329.5 -77.5s188 -134 253 -247s97.5 -262.167 97.5 -447.5
v-106h-1092c4 -148 45.667 -262 125 -342s183 -120 311 -120c85.333 0 159 18.333 221 55s106.333 91.334 133 164.001l283 -51c-34 -124.667 -107.333 -225 -220 -301s-252.667 -114 -420 -114zM431 902l798 0.00195312c-0.666992 117.333 -36 214.5 -106 291.5
s-163 115.5 -279 115.5c-80.667 0 -151.167 -18.833 -211.5 -56.5s-108 -87.334 -143 -149.001s-54.5 -128.834 -58.5 -201.501zM831 1773c-52 0 -96.5 17.5 -133.5 52.5s-55.5 76.833 -55.5 125.5c0 49.333 18.5 91.5 55.5 126.5s81.5 52.5 133.5 52.5
c51.333 0 95.666 -17.5 132.999 -52.5s56 -77.167 56 -126.5c0 -48.667 -18.667 -90.5 -56 -125.5s-81.666 -52.5 -132.999 -52.5z" />
    <glyph glyph-name="uni0118" unicode="&#x118;" horiz-adv-x="1698" 
d="M225 0v2048h1284v-266h-975v-624h908v-265h-908v-627h987v-266h-1296zM1330 -591c-84 0 -153.827 22.666 -209.494 67.999s-86.167 110.666 -91.5 195.999c-4.66699 76.667 17.166 152.834 65.499 228.501s131.166 139.834 248.499 192.501l178 -94
c-60.667 -38.667 -113.5 -80.167 -158.5 -124.5s-67.5 -94.5 -67.5 -150.5c0 -30.667 7.66699 -54.667 23 -72s41.666 -26 78.999 -26c27.333 0 51.666 3.66699 72.999 11s38.666 14.333 51.999 21l26 -190c-22.667 -14 -52.334 -27.5 -89.001 -40.5
s-79.667 -19.5 -129 -19.5z" />
    <glyph glyph-name="uni0119" unicode="&#x119;" horiz-adv-x="1654" 
d="M863 -31c-150.667 0 -280.667 32.667 -390 98s-193.5 157.166 -252.5 275.499s-88.5 256.833 -88.5 415.5c0 157.333 29.5 296 88.5 416s141.667 213.667 248 281s230.833 101 373.5 101c116 0 225.833 -25.833 329.5 -77.5s188 -134 253 -247s97.5 -262.167 97.5 -447.5
v-106h-1092c4 -148 45.667 -262 125 -342s183 -120 311 -120c85.333 0 159 18.333 221 55s106.333 91.334 133 164.001l283 -51c-34 -124.667 -107.333 -225 -220 -301s-252.667 -114 -420 -114zM431 902l798 0.00195312c-0.666992 117.333 -36 214.5 -106 291.5
s-163 115.5 -279 115.5c-80.667 0 -151.167 -18.833 -211.5 -56.5s-108 -87.334 -143 -149.001s-54.5 -128.834 -58.5 -201.501zM917 -576.998c-84 0 -153.827 22.666 -209.494 67.999s-86.167 110.666 -91.5 195.999c-4.66699 76.667 17.166 152.834 65.499 228.501
s131.166 139.834 248.499 192.501l178 -94c-60.667 -38.667 -113.5 -80.167 -158.5 -124.5s-67.5 -94.5 -67.5 -150.5c0 -30.667 7.66699 -54.667 23 -72s41.666 -26 78.999 -26c27.333 0 51.666 3.66699 72.999 11s38.666 14.333 51.999 21l26 -190
c-22.667 -14 -52.334 -27.5 -89.001 -40.5s-79.667 -19.5 -129 -19.5z" />
    <glyph glyph-name="uni011A" unicode="&#x11a;" horiz-adv-x="1698" 
d="M225 0v2048h1284v-266h-975v-624h908v-265h-908v-627h987v-266h-1296zM661 2671l206 -268l205 268h271v-15l-352 -424h-249l-351 424v15h270z" />
    <glyph glyph-name="uni011B" unicode="&#x11b;" horiz-adv-x="1654" 
d="M863 -31c-150.667 0 -280.667 32.667 -390 98s-193.5 157.166 -252.5 275.499s-88.5 256.833 -88.5 415.5c0 157.333 29.5 296 88.5 416s141.667 213.667 248 281s230.833 101 373.5 101c116 0 225.833 -25.833 329.5 -77.5s188 -134 253 -247s97.5 -262.167 97.5 -447.5
v-106h-1092c4 -148 45.667 -262 125 -342s183 -120 311 -120c85.333 0 159 18.333 221 55s106.333 91.334 133 164.001l283 -51c-34 -124.667 -107.333 -225 -220 -301s-252.667 -114 -420 -114zM431 902l798 0.00195312c-0.666992 117.333 -36 214.5 -106 291.5
s-163 115.5 -279 115.5c-80.667 0 -151.167 -18.833 -211.5 -56.5s-108 -87.334 -143 -149.001s-54.5 -128.834 -58.5 -201.501zM625 2159l206 -268l205 268h271v-15l-352 -424h-249l-351 424v15h270z" />
    <glyph glyph-name="uni011C" unicode="&#x11c;" horiz-adv-x="2109" 
d="M1611 1401c-38.667 121.333 -103.166 217.164 -193.499 287.497s-203.5 105.5 -339.5 105.5c-115.333 0 -219.333 -29.667 -312 -89s-165.834 -146.166 -219.501 -260.499s-80.5 -254.166 -80.5 -419.499c0 -166 27 -306.333 81 -421s128 -201.667 222 -261
s201 -89 321 -89c164 0 296.333 48.5 397 145.5s152.667 228.167 156 393.5h-506v255h805v-233c0 -172 -36.5 -321.167 -109.5 -447.5s-173.5 -223.833 -301.5 -292.5s-275 -103 -441 -103c-184.667 0 -347 42.5 -487 127.5s-249 206.167 -327 363.5s-117 344 -117 560
c0 218 39.667 405.667 119 563s188 278.333 326 363s295.333 127 472 127c147.333 0 281 -28.5 401 -85.5s219.5 -136.167 298.5 -237.5s129.833 -218.666 152.5 -351.999h-317zM867.001 2232l206 268l205 -268h271v15l-352 424h-249l-351 -424v-15h270z" />
    <glyph glyph-name="uni011D" unicode="&#x11d;" horiz-adv-x="1738" 
d="M845 -605c-183.333 0 -327.831 34.3311 -433.498 102.998s-178.834 149.334 -219.501 242.001l257 106c18 -28 42.167 -58.333 72.5 -91s71.666 -60.667 123.999 -84s119.833 -35 202.5 -35c113.333 0 207 27.333 281 82s111 141.334 111 260.001v302h-19
c-18 -32.667 -43.667 -69 -77 -109s-79.5 -74.667 -138.5 -104s-135.5 -44 -229.5 -44c-120.667 0 -229.5 28.5 -326.5 85.5s-173.833 141.333 -230.5 253s-85 249.167 -85 412.5s27.833 303.333 83.5 420s132.167 206.167 229.5 268.5s207.666 93.5 330.999 93.5
c95.333 0 172.5 -15.833 231.5 -47.5s105 -68.5 138 -110.5s58.167 -79 75.5 -111h22v249h293v-1570c0 -130.667 -30.667 -238.167 -92 -322.5s-144.166 -146.833 -248.499 -187.5s-221.833 -61 -352.5 -61zM842.002 270.998c129.333 0 228.5 44.833 297.5 134.5
s103.5 213.834 103.5 372.501c0 155.333 -34.167 281.5 -102.5 378.5s-167.833 145.5 -298.5 145.5c-90 0 -165 -23.167 -225 -69.5s-105.167 -109 -135.5 -188s-45.5 -167.833 -45.5 -266.5c0 -150.667 34.333 -272.834 103 -366.501s169.667 -140.5 303 -140.5z
M658.002 1720l206 268l205 -268h271v15l-352 424h-249l-351 -424v-15h270z" />
    <glyph glyph-name="uni011E" unicode="&#x11e;" horiz-adv-x="2109" 
d="M1611 1401c-38.667 121.333 -103.166 217.164 -193.499 287.497s-203.5 105.5 -339.5 105.5c-115.333 0 -219.333 -29.667 -312 -89s-165.834 -146.166 -219.501 -260.499s-80.5 -254.166 -80.5 -419.499c0 -166 27 -306.333 81 -421s128 -201.667 222 -261
s201 -89 321 -89c164 0 296.333 48.5 397 145.5s152.667 228.167 156 393.5h-506v255h805v-233c0 -172 -36.5 -321.167 -109.5 -447.5s-173.5 -223.833 -301.5 -292.5s-275 -103 -441 -103c-184.667 0 -347 42.5 -487 127.5s-249 206.167 -327 363.5s-117 344 -117 560
c0 218 39.667 405.667 119 563s188 278.333 326 363s295.333 127 472 127c147.333 0 281 -28.5 401 -85.5s219.5 -136.167 298.5 -237.5s129.833 -218.666 152.5 -351.999h-317zM1269 2568h245.999c0 -112.667 -39.833 -204.167 -119.5 -274.5
s-187.167 -105.5 -322.5 -105.5c-134.667 0 -241.667 35.167 -321 105.5s-119 161.833 -119 274.5h245c0 -50 14.833 -94.167 44.5 -132.5s79.834 -57.5 150.501 -57.5c70 0 120.167 19 150.5 57s45.5 82.333 45.5 133z" />
    <glyph glyph-name="uni011F" unicode="&#x11f;" horiz-adv-x="1738" 
d="M845 -605c-183.333 0 -327.831 34.3311 -433.498 102.998s-178.834 149.334 -219.501 242.001l257 106c18 -28 42.167 -58.333 72.5 -91s71.666 -60.667 123.999 -84s119.833 -35 202.5 -35c113.333 0 207 27.333 281 82s111 141.334 111 260.001v302h-19
c-18 -32.667 -43.667 -69 -77 -109s-79.5 -74.667 -138.5 -104s-135.5 -44 -229.5 -44c-120.667 0 -229.5 28.5 -326.5 85.5s-173.833 141.333 -230.5 253s-85 249.167 -85 412.5s27.833 303.333 83.5 420s132.167 206.167 229.5 268.5s207.666 93.5 330.999 93.5
c95.333 0 172.5 -15.833 231.5 -47.5s105 -68.5 138 -110.5s58.167 -79 75.5 -111h22v249h293v-1570c0 -130.667 -30.667 -238.167 -92 -322.5s-144.166 -146.833 -248.499 -187.5s-221.833 -61 -352.5 -61zM842.002 270.998c129.333 0 228.5 44.833 297.5 134.5
s103.5 213.834 103.5 372.501c0 155.333 -34.167 281.5 -102.5 378.5s-167.833 145.5 -298.5 145.5c-90 0 -165 -23.167 -225 -69.5s-105.167 -109 -135.5 -188s-45.5 -167.833 -45.5 -266.5c0 -150.667 34.333 -272.834 103 -366.501s169.667 -140.5 303 -140.5zM1060 2056
h245.999c0 -112.667 -39.833 -204.167 -119.5 -274.5s-187.167 -105.5 -322.5 -105.5c-134.667 0 -241.667 35.167 -321 105.5s-119 161.833 -119 274.5h245c0 -50 14.833 -94.167 44.5 -132.5s79.834 -57.5 150.501 -57.5c70 0 120.167 19 150.5 57s45.5 82.333 45.5 133z
" />
    <glyph glyph-name="uni0120" unicode="&#x120;" horiz-adv-x="2109" 
d="M1611 1401c-38.667 121.333 -103.166 217.164 -193.499 287.497s-203.5 105.5 -339.5 105.5c-115.333 0 -219.333 -29.667 -312 -89s-165.834 -146.166 -219.501 -260.499s-80.5 -254.166 -80.5 -419.499c0 -166 27 -306.333 81 -421s128 -201.667 222 -261
s201 -89 321 -89c164 0 296.333 48.5 397 145.5s152.667 228.167 156 393.5h-506v255h805v-233c0 -172 -36.5 -321.167 -109.5 -447.5s-173.5 -223.833 -301.5 -292.5s-275 -103 -441 -103c-184.667 0 -347 42.5 -487 127.5s-249 206.167 -327 363.5s-117 344 -117 560
c0 218 39.667 405.667 119 563s188 278.333 326 363s295.333 127 472 127c147.333 0 281 -28.5 401 -85.5s219.5 -136.167 298.5 -237.5s129.833 -218.666 152.5 -351.999h-317zM1073 2285c-52 0 -96.5 17.5 -133.5 52.5s-55.5 76.833 -55.5 125.5
c0 49.333 18.5 91.5 55.5 126.5s81.5 52.5 133.5 52.5c51.333 0 95.666 -17.5 132.999 -52.5s56 -77.167 56 -126.5c0 -48.667 -18.667 -90.5 -56 -125.5s-81.666 -52.5 -132.999 -52.5z" />
    <glyph glyph-name="uni0121" unicode="&#x121;" horiz-adv-x="1738" 
d="M845 -605c-183.333 0 -327.831 34.3311 -433.498 102.998s-178.834 149.334 -219.501 242.001l257 106c18 -28 42.167 -58.333 72.5 -91s71.666 -60.667 123.999 -84s119.833 -35 202.5 -35c113.333 0 207 27.333 281 82s111 141.334 111 260.001v302h-19
c-18 -32.667 -43.667 -69 -77 -109s-79.5 -74.667 -138.5 -104s-135.5 -44 -229.5 -44c-120.667 0 -229.5 28.5 -326.5 85.5s-173.833 141.333 -230.5 253s-85 249.167 -85 412.5s27.833 303.333 83.5 420s132.167 206.167 229.5 268.5s207.666 93.5 330.999 93.5
c95.333 0 172.5 -15.833 231.5 -47.5s105 -68.5 138 -110.5s58.167 -79 75.5 -111h22v249h293v-1570c0 -130.667 -30.667 -238.167 -92 -322.5s-144.166 -146.833 -248.499 -187.5s-221.833 -61 -352.5 -61zM842.002 270.998c129.333 0 228.5 44.833 297.5 134.5
s103.5 213.834 103.5 372.501c0 155.333 -34.167 281.5 -102.5 378.5s-167.833 145.5 -298.5 145.5c-90 0 -165 -23.167 -225 -69.5s-105.167 -109 -135.5 -188s-45.5 -167.833 -45.5 -266.5c0 -150.667 34.333 -272.834 103 -366.501s169.667 -140.5 303 -140.5z
M864.002 1773c-52 0 -96.5 17.5 -133.5 52.5s-55.5 76.833 -55.5 125.5c0 49.333 18.5 91.5 55.5 126.5s81.5 52.5 133.5 52.5c51.333 0 95.666 -17.5 132.999 -52.5s56 -77.167 56 -126.5c0 -48.667 -18.667 -90.5 -56 -125.5s-81.666 -52.5 -132.999 -52.5z" />
    <glyph glyph-name="uni0122" unicode="&#x122;" horiz-adv-x="2109" 
d="M1611 1401c-38.667 121.333 -103.166 217.164 -193.499 287.497s-203.5 105.5 -339.5 105.5c-115.333 0 -219.333 -29.667 -312 -89s-165.834 -146.166 -219.501 -260.499s-80.5 -254.166 -80.5 -419.499c0 -166 27 -306.333 81 -421s128 -201.667 222 -261
s201 -89 321 -89c164 0 296.333 48.5 397 145.5s152.667 228.167 156 393.5h-506v255h805v-233c0 -172 -36.5 -321.167 -109.5 -447.5s-173.5 -223.833 -301.5 -292.5s-275 -103 -441 -103c-184.667 0 -347 42.5 -487 127.5s-249 206.167 -327 363.5s-117 344 -117 560
c0 218 39.667 405.667 119 563s188 278.333 326 363s295.333 127 472 127c147.333 0 281 -28.5 401 -85.5s219.5 -136.167 298.5 -237.5s129.833 -218.666 152.5 -351.999h-317zM1202 -124.002l0.000976562 -153c-0.666992 -95.333 -15 -193.5 -43 -294.5
s-70.667 -189.5 -128 -265.5l-209 61c33.333 74.667 61.666 153.5 84.999 236.5s35 166.833 35 251.5v164h260z" />
    <glyph glyph-name="uni0123" unicode="&#x123;" horiz-adv-x="1738" 
d="M845 -605c-183.333 0 -327.831 34.3311 -433.498 102.998s-178.834 149.334 -219.501 242.001l257 106c18 -28 42.167 -58.333 72.5 -91s71.666 -60.667 123.999 -84s119.833 -35 202.5 -35c113.333 0 207 27.333 281 82s111 141.334 111 260.001v302h-19
c-18 -32.667 -43.667 -69 -77 -109s-79.5 -74.667 -138.5 -104s-135.5 -44 -229.5 -44c-120.667 0 -229.5 28.5 -326.5 85.5s-173.833 141.333 -230.5 253s-85 249.167 -85 412.5s27.833 303.333 83.5 420s132.167 206.167 229.5 268.5s207.666 93.5 330.999 93.5
c95.333 0 172.5 -15.833 231.5 -47.5s105 -68.5 138 -110.5s58.167 -79 75.5 -111h22v249h293v-1570c0 -130.667 -30.667 -238.167 -92 -322.5s-144.166 -146.833 -248.499 -187.5s-221.833 -61 -352.5 -61zM842.002 270.998c129.333 0 228.5 44.833 297.5 134.5
s103.5 213.834 103.5 372.501c0 155.333 -34.167 281.5 -102.5 378.5s-167.833 145.5 -298.5 145.5c-90 0 -165 -23.167 -225 -69.5s-105.167 -109 -135.5 -188s-45.5 -167.833 -45.5 -266.5c0 -150.667 34.333 -272.834 103 -366.501s169.667 -140.5 303 -140.5z
M713.002 1743v181.001c0 91.333 21.833 177.166 65.5 257.499s89.834 139.5 138.501 177.5l175 -118c-28.667 -50.667 -50.334 -102.334 -65.001 -155c-14.667 -52.667 -22 -111 -22 -175l-2 -168h-290z" />
    <glyph glyph-name="uni0124" unicode="&#x124;" horiz-adv-x="2090" 
d="M225 0v2048h309v-890h1021v890h310v-2048h-310v893h-1021v-893h-309zM847 2235l206 268l205 -268h271v15l-352 424h-249l-351 -424v-15h270z" />
    <glyph glyph-name="uni0125" unicode="&#x125;" horiz-adv-x="1695" 
d="M500 912v-912h-299v2048h295v-762h19c36 83.333 91 149.166 165 197.499s170.667 72.5 290 72.5c158 0 285.167 -48.667 381.5 -146s144.5 -241.666 144.5 -432.999v-977h-299v941c0 112.667 -29 200.167 -87 262.5s-138.667 93.5 -242 93.5
c-106.667 0 -194.667 -33.5 -264 -100.5s-104 -161.833 -104 -284.5zM145 2232l206 268l205 -268h271v15l-352 424h-249l-351 -424v-15h270z" />
    <glyph glyph-name="uni0126" unicode="&#x126;" horiz-adv-x="2219" 
d="M2095 1642v-220h-165v-1422h-310v893h-1021v-893h-309v1422h-166v220h166v406h309v-406h1021v406h310v-406h165zM1620 1422h-1021v-264h1021v264z" />
    <glyph glyph-name="uni0127" unicode="&#x127;" horiz-adv-x="1695" 
d="M500 912v-912h-299v2048h295v-762h19c36 83.333 91 149.166 165 197.499s170.667 72.5 290 72.5c158 0 285.167 -48.667 381.5 -146s144.5 -241.666 144.5 -432.999v-977h-299v941c0 112.667 -29 200.167 -87 262.5s-138.667 93.5 -242 93.5
c-106.667 0 -194.667 -33.5 -264 -100.5s-104 -161.833 -104 -284.5zM-110 1682v207h919v-207h-919z" />
    <glyph glyph-name="uni0128" unicode="&#x128;" horiz-adv-x="1255" 
d="M781 2048v-2048h-309v2048h309zM326 2234l-201.002 6c0 110.667 29.833 199 89.5 265s133.5 99 221.5 99c54.667 0 100.834 -11.167 138.501 -33.5s73.667 -44.833 108 -67.5s73.833 -34 118.5 -34c38.667 0 70 14.667 94 44s36.333 65.666 37 109l197 -13
c0 -111.333 -30 -198.833 -90 -262.5s-133.667 -95.834 -221 -96.5c-47.333 0 -86.5 6.83301 -117.5 20.5s-58.5 29.5 -82.5 47.5s-48.667 33.833 -74 47.5s-55.666 20.5 -90.999 20.5c-36.667 0 -67 -14.5 -91 -43.5s-36 -65.167 -36 -108.5z" />
    <glyph glyph-name="uni0129" unicode="&#x129;" horiz-adv-x="823" 
d="M182 1722l-201.002 6.00195c0 110.667 29.833 199 89.5 265s133.5 99 221.5 99c54.667 0 100.834 -11.167 138.501 -33.5s73.667 -44.833 108 -67.5s73.833 -34 118.5 -34c38.667 0 70 14.667 94 44s36.333 65.666 37 108.999l197 -13
c0 -111.333 -30 -198.833 -90 -262.5s-133.667 -95.834 -221 -96.501c-47.333 0 -86.5 6.83301 -117.5 20.5s-58.5 29.5 -82.5 47.5s-48.667 33.833 -74 47.5s-55.666 20.5 -90.999 20.5c-36.667 0 -67 -14.5 -91 -43.5s-36 -65.167 -36 -108.5zM270.998 0.00195312v1536
h299v-1536h-299z" />
    <glyph glyph-name="uni012A" unicode="&#x12a;" horiz-adv-x="759" 
d="M534 2048v-2048h-309v2048h309zM855 2560v-210h-949v210h949z" />
    <glyph glyph-name="uni012B" unicode="&#x12b;" horiz-adv-x="701" 
d="M201 0v1536h299v-1536h-299zM827 2048v-210h-949v210h949z" />
    <glyph glyph-name="uni012C" unicode="&#x12c;" horiz-adv-x="759" 
d="M534 2048v-2048h-309v2048h309zM576 2568h245.999c0 -112.667 -39.833 -204.167 -119.5 -274.5s-187.167 -105.5 -322.5 -105.5c-134.667 0 -241.667 35.167 -321 105.5s-119 161.833 -119 274.5h245c0 -50 14.833 -94.167 44.5 -132.5s79.834 -57.5 150.501 -57.5
c70 0 120.167 19 150.5 57s45.5 82.333 45.5 133z" />
    <glyph glyph-name="uni012D" unicode="&#x12d;" horiz-adv-x="701" 
d="M201 0v1536h299v-1536h-299zM548 2056h245.999c0 -112.667 -39.833 -204.167 -119.5 -274.5s-187.167 -105.5 -322.5 -105.5c-134.667 0 -241.667 35.167 -321 105.5s-119 161.833 -119 274.5h245c0 -50 14.833 -94.167 44.5 -132.5s79.834 -57.5 150.501 -57.5
c70 0 120.167 19 150.5 57s45.5 82.333 45.5 133z" />
    <glyph glyph-name="uni012E" unicode="&#x12e;" horiz-adv-x="757" 
d="M536 2048v-2048h-309v2048h309zM345 -591c-84 0 -153.827 22.666 -209.494 67.999s-86.167 110.666 -91.5 195.999c-4.66699 76.667 17.166 152.834 65.499 228.501s131.166 139.834 248.499 192.501l178 -94c-60.667 -38.667 -113.5 -80.167 -158.5 -124.5
s-67.5 -94.5 -67.5 -150.5c0 -30.667 7.66699 -54.667 23 -72s41.666 -26 78.999 -26c27.333 0 51.666 3.66699 72.999 11s38.666 14.333 51.999 21l26 -190c-22.667 -14 -52.334 -27.5 -89.001 -40.5s-79.667 -19.5 -129 -19.5z" />
    <glyph glyph-name="uni012F" unicode="&#x12f;" horiz-adv-x="712" 
d="M307 -591c-84 0 -153.827 22.666 -209.494 67.999s-86.167 110.666 -91.5 195.999c-4.66699 76.667 17.166 152.834 65.499 228.501s131.166 139.834 248.499 192.501l178 -94c-60.667 -38.667 -113.5 -80.167 -158.5 -124.5s-67.5 -94.5 -67.5 -150.5
c0 -30.667 7.66699 -54.667 23 -72s41.666 -26 78.999 -26c27.333 0 51.666 3.66699 72.999 11s38.666 14.333 51.999 21l26 -190c-22.667 -14 -52.334 -27.5 -89.001 -40.5s-79.667 -19.5 -129 -19.5zM202.006 -0.000976562v1536h299v-1536h-299zM353.006 1773
c-52 0 -96.5 17.5 -133.5 52.5s-55.5 76.833 -55.5 125.5c0 49.333 18.5 91.5 55.5 126.5s81.5 52.5 133.5 52.5c51.333 0 95.666 -17.5 132.999 -52.5s56 -77.167 56 -126.5c0 -48.667 -18.667 -90.5 -56 -125.5s-81.666 -52.5 -132.999 -52.5z" />
    <glyph glyph-name="uni0130" unicode="&#x130;" horiz-adv-x="759" 
d="M534 2048v-2048h-309v2048h309zM380 2285c-52 0 -96.5 17.5 -133.5 52.5s-55.5 76.833 -55.5 125.5c0 49.333 18.5 91.5 55.5 126.5s81.5 52.5 133.5 52.5c51.333 0 95.666 -17.5 132.999 -52.5s56 -77.167 56 -126.5c0 -48.667 -18.667 -90.5 -56 -125.5
s-81.666 -52.5 -132.999 -52.5z" />
    <glyph glyph-name="uni0131" unicode="&#x131;" horiz-adv-x="701" 
d="M201 0v1536h299v-1536h-299z" />
    <glyph glyph-name="uni0132" unicode="&#x132;" horiz-adv-x="2313" 
d="M534 2048v-2048h-309v2048h309zM1780 2048l308 0.00195312v-1452c-0.666992 -196.667 -57.667 -349.834 -171 -459.501s-264 -164.5 -452 -164.5c-115.333 0 -218.833 21 -310.5 63s-164 103.167 -217 183.5s-79.5 178.166 -79.5 293.499h307
c0.666992 -84.667 29.5 -152.167 86.5 -202.5s130.833 -75.5 221.5 -75.5c98 0 173.5 30.833 226.5 92.5s79.833 151.5 80.5 269.5v1452z" />
    <glyph glyph-name="uni0133" unicode="&#x133;" horiz-adv-x="1402" 
d="M201 0v1536h299v-1536h-299zM352 1773c-52 0 -96.5 17.5 -133.5 52.5s-55.5 76.833 -55.5 125.5c0 49.333 18.5 91.5 55.5 126.5s81.5 52.5 133.5 52.5c51.333 0 95.666 -17.5 132.999 -52.5s56 -77.167 56 -126.5c0 -48.667 -18.667 -90.5 -56 -125.5
s-81.666 -52.5 -132.999 -52.5zM902 1536h299.001v-1634c0 -154 -41.5 -272.333 -124.5 -355s-204.833 -123 -365.5 -121h-58v258c9.33301 -0.666992 17.5 -1 24.5 -1h23.5c71.333 0 122.666 19 153.999 57s47 92.667 47 164v1632zM1050 1773c-52 0 -96.5 17.5 -133.5 52.5
s-55.5 76.833 -55.5 125.5c0 49.333 18.5 91.5 55.5 126.5s81.5 52.5 133.5 52.5c51.333 0 95.666 -17.5 132.999 -52.5s56 -77.167 56 -126.5c0 -48.667 -18.667 -90.5 -56 -125.5s-81.666 -52.5 -132.999 -52.5z" />
    <glyph glyph-name="uni0134" unicode="&#x134;" horiz-adv-x="1554" 
d="M1021 2048l308 0.00195312v-1452c-0.666992 -196.667 -57.667 -349.834 -171 -459.501s-264 -164.5 -452 -164.5c-115.333 0 -218.833 21 -310.5 63s-164 103.167 -217 183.5s-79.5 178.166 -79.5 293.499h307c0.666992 -84.667 29.5 -152.167 86.5 -202.5
s130.833 -75.5 221.5 -75.5c98 0 173.5 30.833 226.5 92.5s79.833 151.5 80.5 269.5v1452zM969 2232l206 268l205 -268h271v15l-352 424h-249l-351 -424v-15h270z" />
    <glyph glyph-name="uni0135" unicode="&#x135;" horiz-adv-x="701" 
d="M201 1536h299.001v-1634c0 -154 -41.5 -272.333 -124.5 -355s-204.833 -123 -365.5 -121h-58v258c9.33301 -0.666992 17.5 -1 24.5 -1h23.5c71.333 0 122.666 19 153.999 57s47 92.667 47 164v1632zM143.001 1720l206 268l205 -268h271v15l-352 424h-249l-351 -424v-15
h270z" />
    <glyph glyph-name="uni0136" unicode="&#x136;" horiz-adv-x="1871" 
d="M225 0v2048h309v-978h25l859 978h389l-826 -922l829 -1126h-372l-662 915l-242 -278v-637h-309zM1068 -124l0.000976562 -153c-0.666992 -95.333 -15 -193.5 -43 -294.5s-70.667 -189.5 -128 -265.5l-209 61c33.333 74.667 61.666 153.5 84.999 236.5
s35 166.833 35 251.5v164h260z" />
    <glyph glyph-name="uni0137" unicode="&#x137;" horiz-adv-x="1567" 
d="M201 0v2048h299v-1162h26l612 650h358l-622 -659l664 -877h-367l-522 694l-149 -149v-545h-299zM940 -125l0.000976562 -153c-0.666992 -95.333 -15 -193.5 -43 -294.5s-70.667 -189.5 -128 -265.5l-209 61c33.333 74.667 61.666 153.5 84.999 236.5s35 166.833 35 251.5
v164h260z" />
    <glyph glyph-name="uni0138" unicode="&#x138;" horiz-adv-x="1814" 
d="M552 1488v-599h116l483 599h399l-589 -720l625 -768h-411l-475 598h-148v-598h-325v1488h325z" />
    <glyph glyph-name="uni0139" unicode="&#x139;" horiz-adv-x="1589" 
d="M225 0v2048h309v-1782h928v-266h-1237zM256 2253l233 461h315l-309 -461h-239z" />
    <glyph glyph-name="uni013A" unicode="&#x13a;" horiz-adv-x="701" 
d="M500 2048v-2048h-299v2048h299zM226 2253l233 461h315l-309 -461h-239z" />
    <glyph glyph-name="uni013B" unicode="&#x13b;" horiz-adv-x="1589" 
d="M225 0v2048h309v-1782h928v-266h-1237zM976 -125l0.000976562 -153c-0.666992 -95.333 -15 -193.5 -43 -294.5s-70.667 -189.5 -128 -265.5l-209 61c33.333 74.667 61.666 153.5 84.999 236.5s35 166.833 35 251.5v164h260z" />
    <glyph glyph-name="uni013C" unicode="&#x13c;" horiz-adv-x="701" 
d="M500 2048v-2048h-299v2048h299zM485 -125l0.000976562 -153c-0.666992 -95.333 -15 -193.5 -43 -294.5s-70.667 -189.5 -128 -265.5l-209 61c33.333 74.667 61.666 153.5 84.999 236.5s35 166.833 35 251.5v164h260z" />
    <glyph glyph-name="uni013D" unicode="&#x13d;" horiz-adv-x="1589" 
d="M225 0v2048h309v-1782h928v-266h-1237zM1134 2048l0.000976562 -153c-0.666992 -95.333 -15 -193.5 -43 -294.5s-70.667 -189.5 -128 -265.5l-209 61c33.333 74.667 61.666 153.5 84.999 236.5s35 166.833 35 251.5v164h260z" />
    <glyph glyph-name="uni013E" unicode="&#x13e;" horiz-adv-x="892" 
d="M503 2048v-2048h-299v2048h299zM927 2048l0.000976562 -153c-0.666992 -95.333 -15 -193.5 -43 -294.5s-70.667 -189.5 -128 -265.5l-209 61c33.333 74.667 61.666 153.5 84.999 236.5s35 166.833 35 251.5v164h260z" />
    <glyph glyph-name="uni013F" unicode="&#x13f;" horiz-adv-x="1600" 
d="M227 0v2048h309v-1782h928v-266h-1237zM994 1017c-52 0 -96.5 17.5 -133.5 52.5s-55.5 76.833 -55.5 125.5c0 49.333 18.5 91.5 55.5 126.5s81.5 52.5 133.5 52.5c51.333 0 95.666 -17.5 132.999 -52.5s56 -77.167 56 -126.5c0 -48.667 -18.667 -90.5 -56 -125.5
s-81.666 -52.5 -132.999 -52.5z" />
    <glyph glyph-name="uni0140" unicode="&#x140;" horiz-adv-x="978" 
d="M503 2048v-2048h-299v2048h299zM819 959c-52 0 -96.5 17.5 -133.5 52.5s-55.5 76.833 -55.5 125.5c0 49.333 18.5 91.5 55.5 126.5s81.5 52.5 133.5 52.5c51.333 0 95.666 -17.5 132.999 -52.5s56 -77.167 56 -126.5c0 -48.667 -18.667 -90.5 -56 -125.5
s-81.666 -52.5 -132.999 -52.5z" />
    <glyph glyph-name="uni0141" unicode="&#x141;" horiz-adv-x="1606" 
d="M904 1294v-199l-341 -103v-726h928v-266h-1237v899l-200 -60v199l200 60v950h309v-857z" />
    <glyph glyph-name="uni0142" unicode="&#x142;" horiz-adv-x="701" 
d="M710 1298v-196l-210 -75v-1027h-299v920l-211 -75v196l211 75v932h299v-825z" />
    <glyph glyph-name="uni0143" unicode="&#x143;" horiz-adv-x="2103" 
d="M1878 2048v-2048h-284l-1041 1502h-19v-1502h-309v2048h286l1042 -1504h19v1504h306zM929 2253l233 461h315l-309 -461h-239z" />
    <glyph glyph-name="uni0144" unicode="&#x144;" horiz-adv-x="1682" 
d="M500 912v-911.999h-299v1536h287v-250h19c35.333 81.333 90.833 146.666 166.5 195.999s171.167 74 286.5 74c157.333 0 283.833 -49 379.5 -147s143.5 -242 143.5 -432v-977h-299v941c0 111.333 -29 198.5 -87 261.5s-137.667 94.5 -239 94.5
c-104 0 -189.667 -33.5 -257 -100.5s-101 -161.833 -101 -284.5zM719 1741l233 461h315l-309 -461h-239z" />
    <glyph glyph-name="uni0145" unicode="&#x145;" horiz-adv-x="2103" 
d="M1878 2048v-2048h-284l-1041 1502h-19v-1502h-309v2048h286l1042 -1504h19v1504h306zM1185 -125l0.000976562 -153c-0.666992 -95.333 -15 -193.5 -43 -294.5s-70.667 -189.5 -128 -265.5l-209 61c33.333 74.667 61.666 153.5 84.999 236.5s35 166.833 35 251.5v164h260z
" />
    <glyph glyph-name="uni0146" unicode="&#x146;" horiz-adv-x="1682" 
d="M500 912v-911.999h-299v1536h287v-250h19c35.333 81.333 90.833 146.666 166.5 195.999s171.167 74 286.5 74c157.333 0 283.833 -49 379.5 -147s143.5 -242 143.5 -432v-977h-299v941c0 111.333 -29 198.5 -87 261.5s-137.667 94.5 -239 94.5
c-104 0 -189.667 -33.5 -257 -100.5s-101 -161.833 -101 -284.5zM975 -124.999l0.000976562 -153c-0.666992 -95.333 -15 -193.5 -43 -294.5s-70.667 -189.5 -128 -265.5l-209 61c33.333 74.667 61.666 153.5 84.999 236.5s35 166.833 35 251.5v164h260z" />
    <glyph glyph-name="uni0147" unicode="&#x147;" horiz-adv-x="2103" 
d="M1878 2048v-2048h-284l-1041 1502h-19v-1502h-309v2048h286l1042 -1504h19v1504h306zM846 2671l206 -268l205 268h271v-15l-352 -424h-249l-351 424v15h270z" />
    <glyph glyph-name="uni0148" unicode="&#x148;" horiz-adv-x="1682" 
d="M500 912v-911.999h-299v1536h287v-250h19c35.333 81.333 90.833 146.666 166.5 195.999s171.167 74 286.5 74c157.333 0 283.833 -49 379.5 -147s143.5 -242 143.5 -432v-977h-299v941c0 111.333 -29 198.5 -87 261.5s-137.667 94.5 -239 94.5
c-104 0 -189.667 -33.5 -257 -100.5s-101 -161.833 -101 -284.5zM636 2159l206 -268l205 268h271v-15l-352 -424h-249l-351 424v15h270z" />
    <glyph glyph-name="uni014A" unicode="&#x14a;" horiz-adv-x="2103" 
d="M1594 0l-1041 1502h-19v-1502h-309v2048h286l1042 -1504h19v1504h306v-2185c0 -152.667 -44.833 -265.667 -134.5 -339s-202.167 -110 -337.5 -110c-24.667 0 -49.667 0.833008 -75 2.5s-48 5.83398 -68 12.501v243c30 -6.66699 63.333 -10 100 -10c66 0 121 15 165 45
s66 82.333 66 157v136z" />
    <glyph glyph-name="uni014B" unicode="&#x14b;" horiz-adv-x="1691" 
d="M500 912l0.000976562 -911.999h-299v1536h287v-250h19c35.333 81.333 90.833 146.666 166.5 195.999s171.167 74 286.5 74c157.333 0 283.833 -49 379.5 -147s143.5 -242 143.5 -432v-1115c0 -144.667 -42.5 -254.834 -127.5 -330.501s-192.167 -113.5 -321.5 -113.5
c-28.667 0 -57 0.5 -85 1.5s-54 4.83301 -78 11.5l10 249c28.667 -6.66699 59.667 -10 93 -10c61.333 0 111.666 13.833 150.999 41.5s59 77.834 59 150.501v1079c0 111.333 -29 198.5 -87 261.5s-137.667 94.5 -239 94.5c-104 0 -189.667 -33.5 -257 -100.5
s-101 -161.833 -101 -284.5z" />
    <glyph glyph-name="uni014C" unicode="&#x14c;" horiz-adv-x="2163" 
d="M2004 1024c0 -218 -40 -405.667 -120 -563s-189.5 -278.166 -328.5 -362.499s-296.833 -126.5 -473.5 -126.5c-177.333 0 -335.5 42.167 -474.5 126.5s-248.5 205.166 -328.5 362.499s-120 345 -120 563c0 218.667 40 406.5 120 563.5s189.5 277.667 328.5 362
s297.167 126.5 474.5 126.5c176.667 0 334.5 -42.167 473.5 -126.5s248.5 -205 328.5 -362s120 -344.833 120 -563.5zM1698 1024c0 166.667 -26.833 307.167 -80.5 421.5s-127 201 -220 260s-198.167 88.5 -315.5 88.5s-222.5 -29.5 -315.5 -88.5
s-166.333 -145.667 -220 -260s-80.5 -254.833 -80.5 -421.5c0 -166 26.833 -306.333 80.5 -421s127 -201.5 220 -260.5s198.167 -88.5 315.5 -88.5s222.5 29.5 315.5 88.5s166.333 145.833 220 260.5s80.5 255 80.5 421zM1556 2560v-210h-949v210h949z" />
    <glyph glyph-name="uni014D" unicode="&#x14d;" horiz-adv-x="1696" 
d="M848 -31c-144 0 -269.667 33 -377 99s-190.666 158.5 -249.999 277.5s-89 257.5 -89 415.5c0 159.333 29.667 298.666 89 417.999s142.666 212 249.999 278s233 99 377 99c144.667 0 270.5 -33 377.5 -99s190.167 -158.667 249.5 -278s89 -258.666 89 -417.999
c0 -158 -29.667 -296.5 -89 -415.5s-142.5 -211.5 -249.5 -277.5s-232.833 -99 -377.5 -99zM849 220c94 0 171.5 24.667 232.5 74s106.333 115.166 136 197.499s44.5 172.5 44.5 270.5s-14.833 188.333 -44.5 271s-75 148.834 -136 198.501s-138.5 74.5 -232.5 74.5
s-171.667 -24.833 -233 -74.5s-107 -115.834 -137 -198.501s-45 -173 -45 -271s15 -188.167 45 -270.5s75.667 -148.166 137 -197.499s139 -74 233 -74zM1323 2048v-210h-949v210h949z" />
    <glyph glyph-name="uni014E" unicode="&#x14e;" horiz-adv-x="2163" 
d="M2004 1024c0 -218 -40 -405.667 -120 -563s-189.5 -278.166 -328.5 -362.499s-296.833 -126.5 -473.5 -126.5c-177.333 0 -335.5 42.167 -474.5 126.5s-248.5 205.166 -328.5 362.499s-120 345 -120 563c0 218.667 40 406.5 120 563.5s189.5 277.667 328.5 362
s297.167 126.5 474.5 126.5c176.667 0 334.5 -42.167 473.5 -126.5s248.5 -205 328.5 -362s120 -344.833 120 -563.5zM1698 1024c0 166.667 -26.833 307.167 -80.5 421.5s-127 201 -220 260s-198.167 88.5 -315.5 88.5s-222.5 -29.5 -315.5 -88.5
s-166.333 -145.667 -220 -260s-80.5 -254.833 -80.5 -421.5c0 -166 26.833 -306.333 80.5 -421s127 -201.5 220 -260.5s198.167 -88.5 315.5 -88.5s222.5 29.5 315.5 88.5s166.333 145.833 220 260.5s80.5 255 80.5 421zM1278 2568h245.999
c0 -112.667 -39.833 -204.167 -119.5 -274.5s-187.167 -105.5 -322.5 -105.5c-134.667 0 -241.667 35.167 -321 105.5s-119 161.833 -119 274.5h245c0 -50 14.833 -94.167 44.5 -132.5s79.834 -57.5 150.501 -57.5c70 0 120.167 19 150.5 57s45.5 82.333 45.5 133z" />
    <glyph glyph-name="uni014F" unicode="&#x14f;" horiz-adv-x="1696" 
d="M848 -31c-144 0 -269.667 33 -377 99s-190.666 158.5 -249.999 277.5s-89 257.5 -89 415.5c0 159.333 29.667 298.666 89 417.999s142.666 212 249.999 278s233 99 377 99c144.667 0 270.5 -33 377.5 -99s190.167 -158.667 249.5 -278s89 -258.666 89 -417.999
c0 -158 -29.667 -296.5 -89 -415.5s-142.5 -211.5 -249.5 -277.5s-232.833 -99 -377.5 -99zM849 220c94 0 171.5 24.667 232.5 74s106.333 115.166 136 197.499s44.5 172.5 44.5 270.5s-14.833 188.333 -44.5 271s-75 148.834 -136 198.501s-138.5 74.5 -232.5 74.5
s-171.667 -24.833 -233 -74.5s-107 -115.834 -137 -198.501s-45 -173 -45 -271s15 -188.167 45 -270.5s75.667 -148.166 137 -197.499s139 -74 233 -74zM1044 2056h245.999c0 -112.667 -39.833 -204.167 -119.5 -274.5s-187.167 -105.5 -322.5 -105.5
c-134.667 0 -241.667 35.167 -321 105.5s-119 161.833 -119 274.5h245c0 -50 14.833 -94.167 44.5 -132.5s79.834 -57.5 150.501 -57.5c70 0 120.167 19 150.5 57s45.5 82.333 45.5 133z" />
    <glyph glyph-name="uni0150" unicode="&#x150;" horiz-adv-x="2163" 
d="M2004 1024c0 -218 -40 -405.667 -120 -563s-189.5 -278.166 -328.5 -362.499s-296.833 -126.5 -473.5 -126.5c-177.333 0 -335.5 42.167 -474.5 126.5s-248.5 205.166 -328.5 362.499s-120 345 -120 563c0 218.667 40 406.5 120 563.5s189.5 277.667 328.5 362
s297.167 126.5 474.5 126.5c176.667 0 334.5 -42.167 473.5 -126.5s248.5 -205 328.5 -362s120 -344.833 120 -563.5zM1698 1024c0 166.667 -26.833 307.167 -80.5 421.5s-127 201 -220 260s-198.167 88.5 -315.5 88.5s-222.5 -29.5 -315.5 -88.5
s-166.333 -145.667 -220 -260s-80.5 -254.833 -80.5 -421.5c0 -166 26.833 -306.333 80.5 -421s127 -201.5 220 -260.5s198.167 -88.5 315.5 -88.5s222.5 29.5 315.5 88.5s166.333 145.833 220 260.5s80.5 255 80.5 421zM1146 2219l311 421h296l-368 -421h-239zM701 2219
l238 421h293l-307 -421h-224z" />
    <glyph glyph-name="uni0151" unicode="&#x151;" horiz-adv-x="1696" 
d="M848 -31c-144 0 -269.667 33 -377 99s-190.666 158.5 -249.999 277.5s-89 257.5 -89 415.5c0 159.333 29.667 298.666 89 417.999s142.666 212 249.999 278s233 99 377 99c144.667 0 270.5 -33 377.5 -99s190.167 -158.667 249.5 -278s89 -258.666 89 -417.999
c0 -158 -29.667 -296.5 -89 -415.5s-142.5 -211.5 -249.5 -277.5s-232.833 -99 -377.5 -99zM849 220c94 0 171.5 24.667 232.5 74s106.333 115.166 136 197.499s44.5 172.5 44.5 270.5s-14.833 188.333 -44.5 271s-75 148.834 -136 198.501s-138.5 74.5 -232.5 74.5
s-171.667 -24.833 -233 -74.5s-107 -115.834 -137 -198.501s-45 -173 -45 -271s15 -188.167 45 -270.5s75.667 -148.166 137 -197.499s139 -74 233 -74zM913 1707l311 421h296l-368 -421h-239zM468 1707l238 421h293l-307 -421h-224z" />
    <glyph glyph-name="uni0152" unicode="&#x152;" horiz-adv-x="2745" 
d="M1072 0c-179.333 0 -337.666 41.501 -474.999 124.501s-244.666 201.167 -321.999 354.5s-116 334.666 -116 543.999c0 211.333 38.667 393.5 116 546.5s184.666 271 321.999 354s295.666 124.5 474.999 124.5h1484v-266h-975v-624h908v-265h-908v-627h987v-266h-1496z
M1272 266.001v1516h-200c-120 0 -225.667 -30.167 -317 -90.5s-162.666 -147 -213.999 -260s-77 -249.167 -77 -408.5c0 -158 25.667 -293.5 77 -406.5s122.666 -199.667 213.999 -260s197 -90.5 317 -90.5h200z" />
    <glyph glyph-name="uni0153" unicode="&#x153;" horiz-adv-x="2775" 
d="M850 -31c-144 0 -269.667 33 -377 99s-190.666 158.5 -249.999 277.5s-89 257.5 -89 415.5c0 159.333 29.667 298.666 89 417.999s142.666 212 249.999 278s233 99 377 99c144.667 0 270.5 -33 377.5 -99s190.167 -158.667 249.5 -278s89 -258.666 89 -417.999
c0 -158 -29.667 -296.5 -89 -415.5s-142.5 -211.5 -249.5 -277.5s-232.833 -99 -377.5 -99zM851 220c94 0 171.5 24.667 232.5 74s106.333 115.166 136 197.499s44.5 172.5 44.5 270.5s-14.833 188.333 -44.5 271s-75 148.834 -136 198.501s-138.5 74.5 -232.5 74.5
s-171.667 -24.833 -233 -74.5s-107 -115.834 -137 -198.501s-45 -173 -45 -271s15 -188.167 45 -270.5s75.667 -148.166 137 -197.499s139 -74 233 -74zM2002 -31c-150.667 0 -280.667 32.667 -390 98s-193.5 157.166 -252.5 275.499s-88.5 256.833 -88.5 415.5
c0 157.333 29.5 296 88.5 416s141.667 213.667 248 281s230.833 101 373.5 101c116 0 225.833 -25.833 329.5 -77.5s188 -134 253 -247s97.5 -262.167 97.5 -447.5v-106h-1092c4 -148 45.667 -262 125 -342s183 -120 311 -120c85.333 0 159 18.333 221 55
s106.333 91.334 133 164.001l283 -51c-34 -124.667 -107.333 -225 -220 -301s-252.667 -114 -420 -114zM1570 902l798 0.00195312c-0.666992 117.333 -36 214.5 -106 291.5s-163 115.5 -279 115.5c-80.667 0 -151.167 -18.833 -211.5 -56.5s-108 -87.334 -143 -149.001
s-54.5 -128.834 -58.5 -201.501z" />
    <glyph glyph-name="uni0154" unicode="&#x154;" horiz-adv-x="1816" 
d="M225 0l-0.000976562 2048h730c158.667 0 290.334 -27.333 395.001 -82s183.167 -130.167 235.5 -226.5s78.5 -207.5 78.5 -333.5c0 -137.333 -31.167 -256.166 -93.5 -356.499s-156.5 -173.833 -282.5 -220.5l454 -829h-352l-416 775h-20h-420v-775h-309zM533.999 1041
h392c150.667 0 259.5 32 326.5 96s100.5 153.667 100.5 269c0 116 -33.667 207.833 -101 275.5s-177.333 101.5 -330 101.5h-388v-742zM772.999 2253l233 461h315l-309 -461h-239z" />
    <glyph glyph-name="uni0155" unicode="&#x155;" horiz-adv-x="1122" 
d="M201 0v1536h289v-244h16c28 82.667 77.333 147.834 148 195.501s151.334 71.5 242.001 71.5c42 0 79.667 -5 113 -15s62.666 -23.667 87.999 -41l-96 -250c-18 9.33301 -38.333 16.666 -61 21.999s-48.667 8 -78 8c-103.333 0 -189.5 -32.5 -258.5 -97.5
s-103.5 -147.5 -103.5 -247.5v-938h-299zM475 1741l233 461h315l-309 -461h-239z" />
    <glyph glyph-name="uni0156" unicode="&#x156;" horiz-adv-x="1816" 
d="M225 0l-0.000976562 2048h730c158.667 0 290.334 -27.333 395.001 -82s183.167 -130.167 235.5 -226.5s78.5 -207.5 78.5 -333.5c0 -137.333 -31.167 -256.166 -93.5 -356.499s-156.5 -173.833 -282.5 -220.5l454 -829h-352l-416 775h-20h-420v-775h-309zM533.999 1041
h392c150.667 0 259.5 32 326.5 96s100.5 153.667 100.5 269c0 116 -33.667 207.833 -101 275.5s-177.333 101.5 -330 101.5h-388v-742zM1064 -125.001l0.000976562 -153c-0.666992 -95.333 -15 -193.5 -43 -294.5s-70.667 -189.5 -128 -265.5l-209 61
c33.333 74.667 61.666 153.5 84.999 236.5s35 166.833 35 251.5v164h260z" />
    <glyph glyph-name="uni0157" unicode="&#x157;" horiz-adv-x="1122" 
d="M201 0v1536h289v-244h16c28 82.667 77.333 147.834 148 195.501s151.334 71.5 242.001 71.5c42 0 79.667 -5 113 -15s62.666 -23.667 87.999 -41l-96 -250c-18 9.33301 -38.333 16.666 -61 21.999s-48.667 8 -78 8c-103.333 0 -189.5 -32.5 -258.5 -97.5
s-103.5 -147.5 -103.5 -247.5v-938h-299zM483 -125l0.000976562 -153c-0.666992 -95.333 -15 -193.5 -43 -294.5s-70.667 -189.5 -128 -265.5l-209 61c33.333 74.667 61.666 153.5 84.999 236.5s35 166.833 35 251.5v164h260z" />
    <glyph glyph-name="uni0158" unicode="&#x158;" horiz-adv-x="1816" 
d="M225 0l-0.000976562 2048h730c158.667 0 290.334 -27.333 395.001 -82s183.167 -130.167 235.5 -226.5s78.5 -207.5 78.5 -333.5c0 -137.333 -31.167 -256.166 -93.5 -356.499s-156.5 -173.833 -282.5 -220.5l454 -829h-352l-416 775h-20h-420v-775h-309zM533.999 1041
h392c150.667 0 259.5 32 326.5 96s100.5 153.667 100.5 269c0 116 -33.667 207.833 -101 275.5s-177.333 101.5 -330 101.5h-388v-742zM689.999 2671l206 -268l205 268h271v-15l-352 -424h-249l-351 424v15h270z" />
    <glyph glyph-name="uni0159" unicode="&#x159;" horiz-adv-x="1122" 
d="M201 0v1536h289v-244h16c28 82.667 77.333 147.834 148 195.501s151.334 71.5 242.001 71.5c42 0 79.667 -5 113 -15s62.666 -23.667 87.999 -41l-96 -250c-18 9.33301 -38.333 16.666 -61 21.999s-48.667 8 -78 8c-103.333 0 -189.5 -32.5 -258.5 -97.5
s-103.5 -147.5 -103.5 -247.5v-938h-299zM392 2159l206 -268l205 268h271v-15l-352 -424h-249l-351 424v15h270z" />
    <glyph glyph-name="uni015A" unicode="&#x15a;" horiz-adv-x="1812" 
d="M1342 1510c-10.667 94.667 -54.6689 168.165 -132.002 220.498s-174.666 78.5 -291.999 78.5c-126 0 -226 -28.667 -300 -86s-111 -129.666 -111 -216.999c0 -65.333 19.833 -118.5 59.5 -159.5s88.334 -73.167 146.001 -96.5s113.167 -42 166.5 -56l200 -52
c65.333 -16 132.333 -37.833 201 -65.5s132.334 -63.667 191.001 -108s106.167 -99.5 142.5 -165.5s54.5 -145 54.5 -237c0 -115.333 -29.833 -218.333 -89.5 -309s-145.834 -161.834 -258.501 -213.501s-249.334 -77.5 -410.001 -77.5
c-229.333 0 -411.833 53.667 -547.5 161s-208.5 253.666 -218.5 438.999h310c9.33301 -111.333 57.666 -194 144.999 -248s190.333 -81 309 -81c131.333 0 239.833 30.333 325.5 91s128.5 141 128.5 241c0 60.667 -17.167 110.5 -51.5 149.5s-80.666 71 -138.999 96
s-124.166 47.167 -197.499 66.5l-242 66c-164.667 44.667 -294.667 110.334 -390 197.001s-143 201.334 -143 344.001c0 118 32 221 96 309s150.833 156.5 260.5 205.5s232.834 73.5 369.501 73.5c138.667 0 261.167 -24.333 367.5 -73s190.166 -115.667 251.499 -201
s93.333 -182.666 96 -291.999h-298zM781.998 2253l233 461h315l-309 -461h-239z" />
    <glyph glyph-name="uni015B" unicode="&#x15b;" horiz-adv-x="1509" 
d="M1352 1161l-270.998 -47.999c-17.333 51.333 -49.5 98.5 -96.5 141.5s-117.167 64.5 -210.5 64.5c-84.667 0 -155.5 -18.833 -212.5 -56.5s-85.167 -86.167 -84.5 -145.5c-0.666992 -52 18.166 -93.5 56.499 -124.5s99.833 -56.5 184.5 -76.5l244 -56
c280 -64.667 420 -203.334 420 -416.001c0 -92.667 -26.5 -174.667 -79.5 -246s-126.667 -127.333 -221 -168s-203.5 -61 -327.5 -61c-172.667 0 -313 36.833 -421 110.5s-174.667 178.5 -200 314.5l289 44c36 -152 146 -228 330 -228c98 0 176.333 20.5 235 61.5
s88 91.167 88 150.5c0 98 -72.333 163 -217 195l-260 57c-144 32 -250 84 -318 156s-102 162.333 -102 271c0 90.667 25.333 170.167 76 238.5s120.667 121.5 210 159.5s191.666 57 306.999 57c166 0 296.667 -36 392 -108s158.333 -167.667 189 -287zM652.002 1741l233 461
h315l-309 -461h-239z" />
    <glyph glyph-name="uni015C" unicode="&#x15c;" horiz-adv-x="1812" 
d="M1342 1510c-10.667 94.667 -54.6689 168.165 -132.002 220.498s-174.666 78.5 -291.999 78.5c-126 0 -226 -28.667 -300 -86s-111 -129.666 -111 -216.999c0 -65.333 19.833 -118.5 59.5 -159.5s88.334 -73.167 146.001 -96.5s113.167 -42 166.5 -56l200 -52
c65.333 -16 132.333 -37.833 201 -65.5s132.334 -63.667 191.001 -108s106.167 -99.5 142.5 -165.5s54.5 -145 54.5 -237c0 -115.333 -29.833 -218.333 -89.5 -309s-145.834 -161.834 -258.501 -213.501s-249.334 -77.5 -410.001 -77.5
c-229.333 0 -411.833 53.667 -547.5 161s-208.5 253.666 -218.5 438.999h310c9.33301 -111.333 57.666 -194 144.999 -248s190.333 -81 309 -81c131.333 0 239.833 30.333 325.5 91s128.5 141 128.5 241c0 60.667 -17.167 110.5 -51.5 149.5s-80.666 71 -138.999 96
s-124.166 47.167 -197.499 66.5l-242 66c-164.667 44.667 -294.667 110.334 -390 197.001s-143 201.334 -143 344.001c0 118 32 221 96 309s150.833 156.5 260.5 205.5s232.834 73.5 369.501 73.5c138.667 0 261.167 -24.333 367.5 -73s190.166 -115.667 251.499 -201
s93.333 -182.666 96 -291.999h-298zM698.998 2232l206 268l205 -268h271v15l-352 424h-249l-351 -424v-15h270z" />
    <glyph glyph-name="uni015D" unicode="&#x15d;" horiz-adv-x="1509" 
d="M1352 1161l-270.998 -47.999c-17.333 51.333 -49.5 98.5 -96.5 141.5s-117.167 64.5 -210.5 64.5c-84.667 0 -155.5 -18.833 -212.5 -56.5s-85.167 -86.167 -84.5 -145.5c-0.666992 -52 18.166 -93.5 56.499 -124.5s99.833 -56.5 184.5 -76.5l244 -56
c280 -64.667 420 -203.334 420 -416.001c0 -92.667 -26.5 -174.667 -79.5 -246s-126.667 -127.333 -221 -168s-203.5 -61 -327.5 -61c-172.667 0 -313 36.833 -421 110.5s-174.667 178.5 -200 314.5l289 44c36 -152 146 -228 330 -228c98 0 176.333 20.5 235 61.5
s88 91.167 88 150.5c0 98 -72.333 163 -217 195l-260 57c-144 32 -250 84 -318 156s-102 162.333 -102 271c0 90.667 25.333 170.167 76 238.5s120.667 121.5 210 159.5s191.666 57 306.999 57c166 0 296.667 -36 392 -108s158.333 -167.667 189 -287zM569.002 1720l206 268
l205 -268h271v15l-352 424h-249l-351 -424v-15h270z" />
    <glyph glyph-name="uni015E" unicode="&#x15e;" horiz-adv-x="1812" 
d="M1342 1510c-10.667 94.667 -54.6689 168.165 -132.002 220.498s-174.666 78.5 -291.999 78.5c-126 0 -226 -28.667 -300 -86s-111 -129.666 -111 -216.999c0 -65.333 19.833 -118.5 59.5 -159.5s88.334 -73.167 146.001 -96.5s113.167 -42 166.5 -56l200 -52
c65.333 -16 132.333 -37.833 201 -65.5s132.334 -63.667 191.001 -108s106.167 -99.5 142.5 -165.5s54.5 -145 54.5 -237c0 -115.333 -29.833 -218.333 -89.5 -309s-145.834 -161.834 -258.501 -213.501s-249.334 -77.5 -410.001 -77.5
c-229.333 0 -411.833 53.667 -547.5 161s-208.5 253.666 -218.5 438.999h310c9.33301 -111.333 57.666 -194 144.999 -248s190.333 -81 309 -81c131.333 0 239.833 30.333 325.5 91s128.5 141 128.5 241c0 60.667 -17.167 110.5 -51.5 149.5s-80.666 71 -138.999 96
s-124.166 47.167 -197.499 66.5l-242 66c-164.667 44.667 -294.667 110.334 -390 197.001s-143 201.334 -143 344.001c0 118 32 221 96 309s150.833 156.5 260.5 205.5s232.834 73.5 369.501 73.5c138.667 0 261.167 -24.333 367.5 -73s190.166 -115.667 251.499 -201
s93.333 -182.666 96 -291.999h-298zM805.998 7.99805l195.999 0.00195312l-16 -82c57.333 -8.66699 107.833 -31.834 151.5 -69.501s65.5 -94.167 65.5 -169.5c0.666992 -90.667 -38.166 -163.834 -116.499 -219.501s-191.5 -83.5 -339.5 -83.5l-6 167
c69.333 0 125.5 10 168.5 30s64.833 52.333 65.5 97s-15.833 76.167 -49.5 94.5s-87.167 30.833 -160.5 37.5z" />
    <glyph glyph-name="uni015F" unicode="&#x15f;" horiz-adv-x="1509" 
d="M1352 1161l-270.998 -47.999c-17.333 51.333 -49.5 98.5 -96.5 141.5s-117.167 64.5 -210.5 64.5c-84.667 0 -155.5 -18.833 -212.5 -56.5s-85.167 -86.167 -84.5 -145.5c-0.666992 -52 18.166 -93.5 56.499 -124.5s99.833 -56.5 184.5 -76.5l244 -56
c280 -64.667 420 -203.334 420 -416.001c0 -92.667 -26.5 -174.667 -79.5 -246s-126.667 -127.333 -221 -168s-203.5 -61 -327.5 -61c-172.667 0 -313 36.833 -421 110.5s-174.667 178.5 -200 314.5l289 44c36 -152 146 -228 330 -228c98 0 176.333 20.5 235 61.5
s88 91.167 88 150.5c0 98 -72.333 163 -217 195l-260 57c-144 32 -250 84 -318 156s-102 162.333 -102 271c0 90.667 25.333 170.167 76 238.5s120.667 121.5 210 159.5s191.666 57 306.999 57c166 0 296.667 -36 392 -108s158.333 -167.667 189 -287zM664.002 8.00098
l195.999 0.00195312l-16 -82c57.333 -8.66699 107.833 -31.834 151.5 -69.501s65.5 -94.167 65.5 -169.5c0.666992 -90.667 -38.166 -163.834 -116.499 -219.501s-191.5 -83.5 -339.5 -83.5l-6 167c69.333 0 125.5 10 168.5 30s64.833 52.333 65.5 97
s-15.833 76.167 -49.5 94.5s-87.167 30.833 -160.5 37.5z" />
    <glyph glyph-name="uni0160" unicode="&#x160;" horiz-adv-x="1812" 
d="M1342 1510c-10.667 94.667 -54.6689 168.165 -132.002 220.498s-174.666 78.5 -291.999 78.5c-126 0 -226 -28.667 -300 -86s-111 -129.666 -111 -216.999c0 -65.333 19.833 -118.5 59.5 -159.5s88.334 -73.167 146.001 -96.5s113.167 -42 166.5 -56l200 -52
c65.333 -16 132.333 -37.833 201 -65.5s132.334 -63.667 191.001 -108s106.167 -99.5 142.5 -165.5s54.5 -145 54.5 -237c0 -115.333 -29.833 -218.333 -89.5 -309s-145.834 -161.834 -258.501 -213.501s-249.334 -77.5 -410.001 -77.5
c-229.333 0 -411.833 53.667 -547.5 161s-208.5 253.666 -218.5 438.999h310c9.33301 -111.333 57.666 -194 144.999 -248s190.333 -81 309 -81c131.333 0 239.833 30.333 325.5 91s128.5 141 128.5 241c0 60.667 -17.167 110.5 -51.5 149.5s-80.666 71 -138.999 96
s-124.166 47.167 -197.499 66.5l-242 66c-164.667 44.667 -294.667 110.334 -390 197.001s-143 201.334 -143 344.001c0 118 32 221 96 309s150.833 156.5 260.5 205.5s232.834 73.5 369.501 73.5c138.667 0 261.167 -24.333 367.5 -73s190.166 -115.667 251.499 -201
s93.333 -182.666 96 -291.999h-298zM698.998 2671l206 -268l205 268h271v-15l-352 -424h-249l-351 424v15h270z" />
    <glyph glyph-name="uni0161" unicode="&#x161;" horiz-adv-x="1509" 
d="M1352 1161l-270.998 -47.999c-17.333 51.333 -49.5 98.5 -96.5 141.5s-117.167 64.5 -210.5 64.5c-84.667 0 -155.5 -18.833 -212.5 -56.5s-85.167 -86.167 -84.5 -145.5c-0.666992 -52 18.166 -93.5 56.499 -124.5s99.833 -56.5 184.5 -76.5l244 -56
c280 -64.667 420 -203.334 420 -416.001c0 -92.667 -26.5 -174.667 -79.5 -246s-126.667 -127.333 -221 -168s-203.5 -61 -327.5 -61c-172.667 0 -313 36.833 -421 110.5s-174.667 178.5 -200 314.5l289 44c36 -152 146 -228 330 -228c98 0 176.333 20.5 235 61.5
s88 91.167 88 150.5c0 98 -72.333 163 -217 195l-260 57c-144 32 -250 84 -318 156s-102 162.333 -102 271c0 90.667 25.333 170.167 76 238.5s120.667 121.5 210 159.5s191.666 57 306.999 57c166 0 296.667 -36 392 -108s158.333 -167.667 189 -287zM569.002 2159
l206 -268l205 268h271v-15l-352 -424h-249l-351 424v15h270z" />
    <glyph glyph-name="uni0162" unicode="&#x162;" horiz-adv-x="1833" 
d="M124 1782v266h1585v-266h-639v-1782h-308v1782h-638zM837 8l195.999 0.00195312l-16 -82c57.333 -8.66699 107.833 -31.834 151.5 -69.501s65.5 -94.167 65.5 -169.5c0.666992 -90.667 -38.166 -163.834 -116.499 -219.501s-191.5 -83.5 -339.5 -83.5l-6 167
c69.333 0 125.5 10 168.5 30s64.833 52.333 65.5 97s-15.833 76.167 -49.5 94.5s-87.167 30.833 -160.5 37.5z" />
    <glyph glyph-name="uni0163" unicode="&#x163;" horiz-adv-x="1047" 
d="M918 1536l-0.00195312 -239.999h-315v-845c0 -86.667 18.5 -142.5 55.5 -167.5s79.833 -37.5 128.5 -37.5c24 0 45 1.66699 63 5l42 8l54 -247c-17.333 -6.66699 -42.166 -13.5 -74.499 -20.5s-72.166 -10.833 -119.499 -11.5
c-78.667 -1.33301 -152.167 12.667 -220.5 42s-123.333 74.666 -165 135.999s-62.5 138.333 -62.5 231v907h-225v240h225v368h299v-368h315zM603.998 8.00098l195.999 0.00195312l-16 -82c57.333 -8.66699 107.833 -31.834 151.5 -69.501s65.5 -94.167 65.5 -169.5
c0.666992 -90.667 -38.166 -163.834 -116.499 -219.501s-191.5 -83.5 -339.5 -83.5l-6 167c69.333 0 125.5 10 168.5 30s64.833 52.333 65.5 97s-15.833 76.167 -49.5 94.5s-87.167 30.833 -160.5 37.5z" />
    <glyph glyph-name="uni0164" unicode="&#x164;" horiz-adv-x="1833" 
d="M124 1782v266h1585v-266h-639v-1782h-308v1782h-638zM711 2671l206 -268l205 268h271v-15l-352 -424h-249l-351 424v15h270z" />
    <glyph glyph-name="uni0165" unicode="&#x165;" horiz-adv-x="1145" 
d="M918 1536l-0.00195312 -239.999h-315v-845c0 -86.667 18.5 -142.5 55.5 -167.5s79.833 -37.5 128.5 -37.5c24 0 45 1.66699 63 5l42 8l54 -247c-17.333 -6.66699 -42.166 -13.5 -74.499 -20.5s-72.166 -10.833 -119.499 -11.5
c-78.667 -1.33301 -152.167 12.667 -220.5 42s-123.333 74.666 -165 135.999s-62.5 138.333 -62.5 231v907h-225v240h225v368h299v-368h315zM1043 2330l0.000976562 -153c-0.666992 -95.333 -15 -193.5 -43 -294.5s-70.667 -189.5 -128 -265.5l-209 61
c33.333 74.667 61.666 153.5 84.999 236.5s35 166.833 35 251.5v164h260z" />
    <glyph glyph-name="uni0166" unicode="&#x166;" horiz-adv-x="1833" 
d="M124 1782v266h1585v-266h-639v-1782h-308v1782h-638zM456 927v207h919v-207h-919z" />
    <glyph glyph-name="uni0167" unicode="&#x167;" horiz-adv-x="1047" 
d="M79 817l-0.00195312 190.001h225v289h-225v240h225v368h299v-368h315v-240h-315v-289h315v-190h-315v-366c0 -86.667 18.5 -142.5 55.5 -167.5s79.833 -37.5 128.5 -37.5c24 0 45 1.66699 63 5l42 8l54 -247c-17.333 -6.66699 -42.166 -13.5 -74.499 -20.5
s-72.166 -10.833 -119.499 -11.5c-78.667 -1.33301 -152.167 12.667 -220.5 42s-123.333 74.666 -165 135.999s-62.5 138.333 -62.5 231v428h-225z" />
    <glyph glyph-name="uni0168" unicode="&#x168;" horiz-adv-x="2077" 
d="M1543 2048h309v-1355c0 -154 -36.333 -285.167 -109 -393.5s-170.5 -191 -293.5 -248s-260.167 -85.5 -411.5 -85.5c-150.667 0 -287.5 28.5 -410.5 85.5s-220.833 139.667 -293.5 248s-109 239.5 -109 393.5v1355h309v-1350c0 -95.333 23 -176.5 69 -243.5
s107.167 -117.833 183.5 -152.5s160.166 -52 251.499 -52c92 0 176.333 17.333 253 52s137.834 85.5 183.501 152.5s68.5 148.167 68.5 243.5v1350zM737 2234l-201.002 6c0 110.667 29.833 199 89.5 265s133.5 99 221.5 99c54.667 0 100.834 -11.167 138.501 -33.5
s73.667 -44.833 108 -67.5s73.833 -34 118.5 -34c38.667 0 70 14.667 94 44s36.333 65.666 37 109l197 -13c0 -111.333 -30 -198.833 -90 -262.5s-133.667 -95.834 -221 -96.5c-47.333 0 -86.5 6.83301 -117.5 20.5s-58.5 29.5 -82.5 47.5s-48.667 33.833 -74 47.5
s-55.666 20.5 -90.999 20.5c-36.667 0 -67 -14.5 -91 -43.5s-36 -65.167 -36 -108.5z" />
    <glyph glyph-name="uni0169" unicode="&#x169;" horiz-adv-x="1674" 
d="M1174 637l-0.000976562 898.999h300v-1536h-294v266h-16c-35.333 -82 -91.833 -150.167 -169.5 -204.5s-174.167 -81.5 -289.5 -81.5c-147.333 0 -268.166 48.833 -362.499 146.5s-141.5 241.834 -141.5 432.501v977h299v-941c0 -104.667 29 -188 87 -250
s133.333 -93 226 -93c56 0 111.833 14 167.5 42s102 70.5 139 127.5s55.167 128.833 54.5 215.5zM537.999 1722l-201.002 6.00195c0 110.667 29.833 199 89.5 265s133.5 99 221.5 99c54.667 0 100.834 -11.167 138.501 -33.5s73.667 -44.833 108 -67.5s73.833 -34 118.5 -34
c38.667 0 70 14.667 94 44s36.333 65.666 37 108.999l197 -13c0 -111.333 -30 -198.833 -90 -262.5s-133.667 -95.834 -221 -96.501c-47.333 0 -86.5 6.83301 -117.5 20.5s-58.5 29.5 -82.5 47.5s-48.667 33.833 -74 47.5s-55.666 20.5 -90.999 20.5
c-36.667 0 -67 -14.5 -91 -43.5s-36 -65.167 -36 -108.5z" />
    <glyph glyph-name="uni016A" unicode="&#x16a;" horiz-adv-x="2077" 
d="M1543 2048h309v-1355c0 -154 -36.333 -285.167 -109 -393.5s-170.5 -191 -293.5 -248s-260.167 -85.5 -411.5 -85.5c-150.667 0 -287.5 28.5 -410.5 85.5s-220.833 139.667 -293.5 248s-109 239.5 -109 393.5v1355h309v-1350c0 -95.333 23 -176.5 69 -243.5
s107.167 -117.833 183.5 -152.5s160.166 -52 251.499 -52c92 0 176.333 17.333 253 52s137.834 85.5 183.501 152.5s68.5 148.167 68.5 243.5v1350zM1513 2560v-210h-949v210h949z" />
    <glyph glyph-name="uni016B" unicode="&#x16b;" horiz-adv-x="1674" 
d="M1174 637l-0.000976562 898.999h300v-1536h-294v266h-16c-35.333 -82 -91.833 -150.167 -169.5 -204.5s-174.167 -81.5 -289.5 -81.5c-147.333 0 -268.166 48.833 -362.499 146.5s-141.5 241.834 -141.5 432.501v977h299v-941c0 -104.667 29 -188 87 -250
s133.333 -93 226 -93c56 0 111.833 14 167.5 42s102 70.5 139 127.5s55.167 128.833 54.5 215.5zM1314 2048v-210h-949v210h949z" />
    <glyph glyph-name="uni016C" unicode="&#x16c;" horiz-adv-x="2077" 
d="M1543 2048h309v-1355c0 -154 -36.333 -285.167 -109 -393.5s-170.5 -191 -293.5 -248s-260.167 -85.5 -411.5 -85.5c-150.667 0 -287.5 28.5 -410.5 85.5s-220.833 139.667 -293.5 248s-109 239.5 -109 393.5v1355h309v-1350c0 -95.333 23 -176.5 69 -243.5
s107.167 -117.833 183.5 -152.5s160.166 -52 251.499 -52c92 0 176.333 17.333 253 52s137.834 85.5 183.501 152.5s68.5 148.167 68.5 243.5v1350zM1235 2568h245.999c0 -112.667 -39.833 -204.167 -119.5 -274.5s-187.167 -105.5 -322.5 -105.5
c-134.667 0 -241.667 35.167 -321 105.5s-119 161.833 -119 274.5h245c0 -50 14.833 -94.167 44.5 -132.5s79.834 -57.5 150.501 -57.5c70 0 120.167 19 150.5 57s45.5 82.333 45.5 133z" />
    <glyph glyph-name="uni016D" unicode="&#x16d;" horiz-adv-x="1674" 
d="M1174 637l-0.000976562 898.999h300v-1536h-294v266h-16c-35.333 -82 -91.833 -150.167 -169.5 -204.5s-174.167 -81.5 -289.5 -81.5c-147.333 0 -268.166 48.833 -362.499 146.5s-141.5 241.834 -141.5 432.501v977h299v-941c0 -104.667 29 -188 87 -250
s133.333 -93 226 -93c56 0 111.833 14 167.5 42s102 70.5 139 127.5s55.167 128.833 54.5 215.5zM1036 2056h245.999c0 -112.667 -39.833 -204.167 -119.5 -274.5s-187.167 -105.5 -322.5 -105.5c-134.667 0 -241.667 35.167 -321 105.5s-119 161.833 -119 274.5h245
c0 -50 14.833 -94.167 44.5 -132.5s79.834 -57.5 150.501 -57.5c70 0 120.167 19 150.5 57s45.5 82.333 45.5 133z" />
    <glyph glyph-name="uni016E" unicode="&#x16e;" horiz-adv-x="2077" 
d="M1543 2048h309v-1355c0 -154 -36.333 -285.167 -109 -393.5s-170.5 -191 -293.5 -248s-260.167 -85.5 -411.5 -85.5c-150.667 0 -287.5 28.5 -410.5 85.5s-220.833 139.667 -293.5 248s-109 239.5 -109 393.5v1355h309v-1350c0 -95.333 23 -176.5 69 -243.5
s107.167 -117.833 183.5 -152.5s160.166 -52 251.499 -52c92 0 176.333 17.333 253 52s137.834 85.5 183.501 152.5s68.5 148.167 68.5 243.5v1350zM1039 2175c-60.667 0 -116 14 -166 42s-89.833 65.667 -119.5 113s-44.5 99.333 -44.5 156
c0 57.333 14.833 109.666 44.5 157c29.667 47.333 69.5 85 119.5 113s105.333 42 166 42s115.834 -14 165.501 -42s89.334 -65.667 119.001 -113s44.5 -99.666 44.5 -157c0 -56.667 -14.833 -108.667 -44.5 -156s-69.334 -85 -119.001 -113s-104.834 -42 -165.501 -42z
M1039 2334c43.333 0.666992 80.166 15.667 110.499 45s45.5 65 45.5 107c0 42.667 -15.167 78.834 -45.5 108.5c-30.333 29.667 -67.166 44.167 -110.499 43.5c-43.333 0 -80.333 -14.667 -111 -44s-46 -65.333 -46 -108c0 -42 15.333 -77.833 46 -107.5
s67.667 -44.5 111 -44.5z" />
    <glyph glyph-name="uni016F" unicode="&#x16f;" horiz-adv-x="1674" 
d="M1174 637l-0.000976562 898.999h300v-1536h-294v266h-16c-35.333 -82 -91.833 -150.167 -169.5 -204.5s-174.167 -81.5 -289.5 -81.5c-147.333 0 -268.166 48.833 -362.499 146.5s-141.5 241.834 -141.5 432.501v977h299v-941c0 -104.667 29 -188 87 -250
s133.333 -93 226 -93c56 0 111.833 14 167.5 42s102 70.5 139 127.5s55.167 128.833 54.5 215.5zM839.999 1706c-66.667 0 -127 14.834 -181 44.501s-96.833 70 -128.5 121s-47.5 107.833 -47.5 170.5s15.833 120.167 47.5 172.5s74.5 94.166 128.5 125.5
c54 31.333 114.333 47 181 47s126.5 -15.667 179.5 -47s95.167 -73.166 126.5 -125.5c31.333 -52.333 47 -109.833 47 -172.5c0 -94.667 -34 -174.334 -102 -239.001s-151.667 -97 -251 -97zM839.999 1866c52 0.666992 95 18.833 129 54.5s51 76.167 51 121.5
c0 46.667 -17 88.5 -51 125.5s-77 55.5 -129 55.5c-52.667 0 -95.834 -18.5 -129.501 -55.5s-50.5 -78.833 -50.5 -125.5c0 -45.333 16.833 -86 50.5 -122s76.834 -54 129.501 -54z" />
    <glyph glyph-name="uni0170" unicode="&#x170;" horiz-adv-x="2077" 
d="M1543 2048h309v-1355c0 -154 -36.333 -285.167 -109 -393.5s-170.5 -191 -293.5 -248s-260.167 -85.5 -411.5 -85.5c-150.667 0 -287.5 28.5 -410.5 85.5s-220.833 139.667 -293.5 248s-109 239.5 -109 393.5v1355h309v-1350c0 -95.333 23 -176.5 69 -243.5
s107.167 -117.833 183.5 -152.5s160.166 -52 251.499 -52c92 0 176.333 17.333 253 52s137.834 85.5 183.501 152.5s68.5 148.167 68.5 243.5v1350zM1103 2219l311 421h296l-368 -421h-239zM658 2219l238 421h293l-307 -421h-224z" />
    <glyph glyph-name="uni0171" unicode="&#x171;" horiz-adv-x="1674" 
d="M1174 637l-0.000976562 898.999h300v-1536h-294v266h-16c-35.333 -82 -91.833 -150.167 -169.5 -204.5s-174.167 -81.5 -289.5 -81.5c-147.333 0 -268.166 48.833 -362.499 146.5s-141.5 241.834 -141.5 432.501v977h299v-941c0 -104.667 29 -188 87 -250
s133.333 -93 226 -93c56 0 111.833 14 167.5 42s102 70.5 139 127.5s55.167 128.833 54.5 215.5zM903.999 1707l311 421h296l-368 -421h-239zM458.999 1707l238 421h293l-307 -421h-224z" />
    <glyph glyph-name="uni0172" unicode="&#x172;" horiz-adv-x="2077" 
d="M1543 2048h309v-1355c0 -154 -36.333 -285.167 -109 -393.5s-170.5 -191 -293.5 -248s-260.167 -85.5 -411.5 -85.5c-150.667 0 -287.5 28.5 -410.5 85.5s-220.833 139.667 -293.5 248s-109 239.5 -109 393.5v1355h309v-1350c0 -95.333 23 -176.5 69 -243.5
s107.167 -117.833 183.5 -152.5s160.166 -52 251.499 -52c92 0 176.333 17.333 253 52s137.834 85.5 183.501 152.5s68.5 148.167 68.5 243.5v1350zM1065 -588c-84 0 -153.827 22.666 -209.494 67.999s-86.167 110.666 -91.5 195.999
c-4.66699 76.667 17.166 152.834 65.499 228.501s131.166 139.834 248.499 192.501l178 -94c-60.667 -38.667 -113.5 -80.167 -158.5 -124.5s-67.5 -94.5 -67.5 -150.5c0 -30.667 7.66699 -54.667 23 -72s41.666 -26 78.999 -26c27.333 0 51.666 3.66699 72.999 11
s38.666 14.333 51.999 21l26 -190c-22.667 -14 -52.334 -27.5 -89.001 -40.5s-79.667 -19.5 -129 -19.5z" />
    <glyph glyph-name="uni0173" unicode="&#x173;" horiz-adv-x="1674" 
d="M1174 637l-0.000976562 898.999h300v-1536h-294v266h-16c-35.333 -82 -91.833 -150.167 -169.5 -204.5s-174.167 -81.5 -289.5 -81.5c-147.333 0 -268.166 48.833 -362.499 146.5s-141.5 241.834 -141.5 432.501v977h299v-941c0 -104.667 29 -188 87 -250
s133.333 -93 226 -93c56 0 111.833 14 167.5 42s102 70.5 139 127.5s55.167 128.833 54.5 215.5zM1283 -591.001c-84 0 -153.827 22.666 -209.494 67.999s-86.167 110.666 -91.5 195.999c-4.66699 76.667 17.166 152.834 65.499 228.501s131.166 139.834 248.499 192.501
l178 -94c-60.667 -38.667 -113.5 -80.167 -158.5 -124.5s-67.5 -94.5 -67.5 -150.5c0 -30.667 7.66699 -54.667 23 -72s41.666 -26 78.999 -26c27.333 0 51.666 3.66699 72.999 11s38.666 14.333 51.999 21l26 -190c-22.667 -14 -52.334 -27.5 -89.001 -40.5
s-79.667 -19.5 -129 -19.5z" />
    <glyph glyph-name="uni0174" unicode="&#x174;" horiz-adv-x="2754" 
d="M626 0l-568 2048h325l399 -1586h19l415 1586h322l415 -1587h19l398 1587h326l-569 -2048h-311l-431 1534h-16l-431 -1534h-312zM1171 2232l206 268l205 -268h271v15l-352 424h-249l-351 -424v-15h270z" />
    <glyph glyph-name="uni0175" unicode="&#x175;" horiz-adv-x="2323" 
d="M534 0l-452 1536h309l301 -1128h15l302 1128h309l300 -1123h15l299 1123h309l-451 -1536h-305l-312 1109h-23l-312 -1109h-304zM956 1720l206 268l205 -268h271v15l-352 424h-249l-351 -424v-15h270z" />
    <glyph glyph-name="uni0176" unicode="&#x176;" horiz-adv-x="1928" 
d="M67 2048h351l535 -931h22l535 931h351l-743 -1244v-804h-308v804zM758 2232l206 268l205 -268h271v15l-352 424h-249l-351 -424v-15h270z" />
    <glyph glyph-name="uni0177" unicode="&#x177;" horiz-adv-x="1595" 
d="M379 -597c-46.667 0 -87.668 4 -123.001 12s-61 15.667 -77 23l72 248c82.667 -22 151.834 -23.667 207.501 -5s102.167 78 139.5 178l44 121l-562 1556h320l389 -1192h16l389 1192h321l-640 -1760c-43.333 -119.333 -105.833 -211.333 -187.5 -276
s-184.5 -97 -308.5 -97zM590.999 1720l206 268l205 -268h271v15l-352 424h-249l-351 -424v-15h270z" />
    <glyph glyph-name="uni0178" unicode="&#x178;" horiz-adv-x="1928" 
d="M67 2048h351l535 -931h22l535 931h351l-743 -1244v-804h-308v804zM670 2289c-46.667 0 -87.834 17.333 -123.501 52s-53.5 75.334 -53.5 122c0 49.333 17.833 90.833 53.5 124.5s76.834 50.5 123.501 50.5c50 0 91.833 -16.833 125.5 -50.5s50.5 -75.167 50.5 -124.5
c0 -46.667 -16.833 -87.334 -50.5 -122c-33.667 -34.667 -75.5 -52 -125.5 -52zM1258 2289c-46.667 0 -87.834 17.333 -123.501 52s-53.5 75.334 -53.5 122c0 49.333 17.833 90.833 53.5 124.5s76.834 50.5 123.501 50.5c50 0 91.833 -16.833 125.5 -50.5
s50.5 -75.167 50.5 -124.5c0 -46.667 -16.833 -87.334 -50.5 -122c-33.667 -34.667 -75.5 -52 -125.5 -52z" />
    <glyph glyph-name="uni0179" unicode="&#x179;" horiz-adv-x="1799" 
d="M172 0v206l1077 1576h-1086v266h1464v-206l-1077 -1576h1086v-266h-1464zM778 2253l233 461h315l-309 -461h-239z" />
    <glyph glyph-name="uni017A" unicode="&#x17a;" horiz-adv-x="1553" 
d="M169 0v205l832 1057v14h-805v260h1178v-218l-800 -1044v-14h828v-260h-1233zM652 1741l233 461h315l-309 -461h-239z" />
    <glyph glyph-name="uni017B" unicode="&#x17b;" horiz-adv-x="1799" 
d="M172 0v206l1077 1576h-1086v266h1464v-206l-1077 -1576h1086v-266h-1464zM901 2285c-52 0 -96.5 17.5 -133.5 52.5s-55.5 76.833 -55.5 125.5c0 49.333 18.5 91.5 55.5 126.5s81.5 52.5 133.5 52.5c51.333 0 95.666 -17.5 132.999 -52.5s56 -77.167 56 -126.5
c0 -48.667 -18.667 -90.5 -56 -125.5s-81.666 -52.5 -132.999 -52.5z" />
    <glyph glyph-name="uni017C" unicode="&#x17c;" horiz-adv-x="1553" 
d="M169 0v205l832 1057v14h-805v260h1178v-218l-800 -1044v-14h828v-260h-1233zM775 1773c-52 0 -96.5 17.5 -133.5 52.5s-55.5 76.833 -55.5 125.5c0 49.333 18.5 91.5 55.5 126.5s81.5 52.5 133.5 52.5c51.333 0 95.666 -17.5 132.999 -52.5s56 -77.167 56 -126.5
c0 -48.667 -18.667 -90.5 -56 -125.5s-81.666 -52.5 -132.999 -52.5z" />
    <glyph glyph-name="uni017D" unicode="&#x17d;" horiz-adv-x="1799" 
d="M172 0v206l1077 1576h-1086v266h1464v-206l-1077 -1576h1086v-266h-1464zM695 2671l206 -268l205 268h271v-15l-352 -424h-249l-351 424v15h270z" />
    <glyph glyph-name="uni017E" unicode="&#x17e;" horiz-adv-x="1553" 
d="M169 0v205l832 1057v14h-805v260h1178v-218l-800 -1044v-14h828v-260h-1233zM569 2159l206 -268l205 268h271v-15l-352 -424h-249l-351 424v15h270z" />
    <glyph glyph-name="uni017F" unicode="&#x17f;" horiz-adv-x="773" 
d="M354 0h-323.998v1631c-0.666992 165.333 44.166 291.5 134.499 378.5s214.833 130.5 373.5 130.5c33.333 0 67.333 -2.66699 102 -8s69 -12 103 -20l-32 -242c-34.667 8 -76.334 12 -125.001 12c-76 0 -133.667 -22 -173 -66s-59 -105.667 -59 -185v-1631z" />
    <glyph glyph-name="uni0180" unicode="&#x180;" horiz-adv-x="1762" 
d="M225 0l0.00195312 2048h299v-761h18c18 32 43.167 69 75.5 111s77.666 78.833 135.999 110.5s134.833 47.5 229.5 47.5c124 0 234.5 -31.333 331.5 -94s173.5 -153 229.5 -271s84 -260 84 -426c0 -165.333 -27.667 -307.5 -83 -426.5s-131.333 -210.167 -228 -273.5
s-207 -95 -331 -95c-93.333 0 -169.333 15.667 -228 47s-104.834 68 -138.501 110s-59.5 79.333 -77.5 112h-25v-239h-292zM518.002 768c0 -161.333 34.668 -292.166 104.001 -392.499s168.333 -150.5 297 -150.5c89.333 0 164.166 23.833 224.499 71.5
s105.833 112.5 136.5 194.5s46 174.333 46 277c0 102 -15.167 193.167 -45.5 273.5s-75.5 143.833 -135.5 190.5s-135.333 70 -226 70c-130.667 0 -230.167 -48.833 -298.5 -146.5s-102.5 -226.834 -102.5 -387.501zM-84.9971 1659v207h919v-207h-919z" />
    <glyph glyph-name="uni0181" unicode="&#x181;" horiz-adv-x="2320" 
d="M703 0l0.000976562 1783h-109c-54 0 -94.333 -12 -121 -36s-44.334 -55.167 -53.001 -93.5s-13 -78.5 -13 -120.5v-91h-283v158c0 128.667 40.667 235.5 122 320.5s196.333 127.5 345 127.5h862c145.333 0 265.833 -23.833 361.5 -71.5s167 -112 214 -193
s70.5 -172.167 70.5 -273.5c0 -128 -34 -226 -102 -294s-149 -114 -243 -138v-20c68 -3.33301 134.5 -25.166 199.5 -65.499s118.833 -97.5 161.5 -171.5s64 -164 64 -270c0 -104.667 -24.5 -198.5 -73.5 -281.5s-124.5 -148.667 -226.5 -197s-232.333 -72.5 -391 -72.5
h-785zM1012 264.999h445.999c148.667 0 254.834 28.667 318.501 86s95.5 129 95.5 215c0 97.333 -36.167 180.833 -108.5 250.5s-170.5 104.5 -294.5 104.5h-457v-656zM1012 1162l414 -0.000976562c104 0 191.667 29.333 263 88s107 137.334 107 236.001
c0 85.333 -29.667 156.5 -89 213.5s-150.333 85.5 -273 85.5h-422v-623z" />
    <glyph glyph-name="uni0182" unicode="&#x182;" horiz-adv-x="1842" 
d="M225 0v2048h1277v-266h-968v-560h458c227.333 0 403.5 -54.333 528.5 -163s187.5 -254.667 187.5 -438c0 -122 -28 -229.667 -84 -323s-137.333 -166.333 -244 -219s-236 -79 -388 -79h-767zM534 260h458c88 0 162.5 17.167 223.5 51.5s107.333 79.333 139 135
s47.5 115.167 47.5 178.5c0 92.667 -35.333 172 -106 238s-172 99 -304 99h-458v-702z" />
    <glyph glyph-name="uni0183" unicode="&#x183;" horiz-adv-x="1762" 
d="M1419 2048l0.00195312 -249h-895v-512h18c18 32 43.167 69 75.5 111s77.666 78.833 135.999 110.5s134.833 47.5 229.5 47.5c124 0 234.5 -31.333 331.5 -94s173.5 -153 229.5 -271s84 -260 84 -426c0 -165.333 -27.667 -307.5 -83 -426.5s-131.333 -210.167 -228 -273.5
s-207 -95 -331 -95c-93.333 0 -169.333 15.667 -228 47s-104.834 68 -138.501 110s-59.5 79.333 -77.5 112h-25v-239h-292v2048h1194zM518.002 768c0 -161.333 34.668 -292.166 104.001 -392.499s168.333 -150.5 297 -150.5c89.333 0 164.166 23.833 224.499 71.5
s105.833 112.5 136.5 194.5s46 174.333 46 277c0 102 -15.167 193.167 -45.5 273.5s-75.5 143.833 -135.5 190.5s-135.333 70 -226 70c-130.667 0 -230.167 -48.833 -298.5 -146.5s-102.5 -226.834 -102.5 -387.501z" />
    <glyph glyph-name="uni0184" unicode="&#x184;" horiz-adv-x="2078" 
d="M825 1222h457c228 0 404.333 -54.333 529 -163s187 -254.667 187 -438c0 -122 -28 -229.667 -84 -323s-137.333 -166.333 -244 -219s-236 -79 -388 -79h-767v1782h-485v266h795v-826zM825 962v-702h457c88 0 162.667 17.167 224 51.5s107.833 79.333 139.5 135
s47.5 115.167 47.5 178.5c0 92.667 -35.5 172 -106.5 238s-172.5 99 -304.5 99h-457z" />
    <glyph glyph-name="uni0185" unicode="&#x185;" horiz-adv-x="1811" 
d="M342 2112l67 -0.00195312v-64h245v-734h19c17.333 30.667 42.166 64.834 74.499 102.501s76.333 70.334 132 98.001s127.167 41.5 214.5 41.5c123.333 0 233.666 -31.333 330.999 -94s174 -153 230 -271s84 -260 84 -426s-27.667 -308.333 -83 -427
s-131.333 -209.667 -228 -273s-207 -95 -331 -95c-88 0 -160.167 14 -216.5 42s-100.666 61 -132.999 99s-57.166 72.333 -74.499 103h-27v-214h-292v1440h-12l-236 264v142zM1447 767.998c0 153.333 -34.167 280.667 -102.5 382s-171.166 152 -308.499 152
c-135.333 0 -235.833 -49.833 -301.5 -149.5s-98.167 -227.834 -97.5 -384.501c-0.666992 -157.333 32.166 -287.166 98.499 -389.499s166.5 -153.5 300.5 -153.5c90.667 0 166.5 23.667 227.5 71s106.833 112 137.5 194s46 174.667 46 278z" />
    <glyph glyph-name="uni0186" unicode="&#x186;" horiz-adv-x="2071" 
d="M991 -28c-149.333 0 -283.666 29.165 -402.999 87.498s-217.333 139.166 -294 242.499s-126 222.333 -148 357l311 1c26.667 -130.667 89.667 -231 189 -301s213.666 -105 342.999 -105c117.333 0 222.5 29.333 315.5 88s166.5 145.334 220.5 260.001
s81 255.334 81 422.001c0 166 -26.833 306.167 -80.5 420.5s-127.167 201.166 -220.5 260.499s-199 89 -317 89c-130.667 0 -245.5 -35.5 -344.5 -106.5s-161.167 -172.833 -186.5 -305.5h-311c23.333 146 74.333 270.833 153 374.5s177.667 182.834 297 237.501
s251 82 395 82c176.667 0 334.334 -42.167 473.001 -126.5s248 -205 328 -362s120 -344.833 120 -563.5c0 -218 -39.833 -405.667 -119.5 -563s-188.834 -278.166 -327.501 -362.499s-296.667 -126.5 -474 -126.5z" />
    <glyph glyph-name="uni0187" unicode="&#x187;" horiz-adv-x="2234" 
d="M1926 1382l-311.999 0.00195312c-25.333 132.667 -87.5 234.5 -186.5 305.5s-213.833 106.5 -344.5 106.5c-117.333 0 -222.666 -29.667 -315.999 -89s-166.833 -146.166 -220.5 -260.499s-80.5 -254.5 -80.5 -420.5c0 -166.667 27 -307.334 81 -422.001
s127.5 -201.334 220.5 -260.001s197.833 -88 314.5 -88c129.333 0 243.666 35 342.999 105s162.333 170.333 189 301l312 -1c-22 -134.667 -71.333 -253.667 -148 -357s-174.667 -184.166 -294 -242.499s-254 -87.5 -404 -87.5c-177.333 0 -335.333 42.167 -474 126.5
s-247.834 205.166 -327.501 362.499s-119.5 345 -119.5 563c0 218.667 40 406.5 120 563.5s189.333 277.667 328 362s296.334 126.5 473.001 126.5c243.333 0 444 -73.333 602 -220c39.333 75.333 96.166 132.666 170.499 171.999s156.833 59 247.5 59
c27.333 0 54.5 -0.5 81.5 -1.5s52.5 -4.5 76.5 -10.5v-248c-12 1.33301 -26.333 2.83301 -43 4.5s-32.667 2.5 -48 2.5c-64 0 -120.167 -15.833 -168.5 -47.5s-72.5 -90.5 -72.5 -176.5v-228z" />
    <glyph glyph-name="uni0188" unicode="&#x188;" horiz-adv-x="1750" 
d="M1481 1040l-293.003 -0.00292969c-16 72 -52.5 134 -109.5 186s-133.167 78 -228.5 78c-124.667 0 -225.167 -48.167 -301.5 -144.5s-114.5 -226.833 -114.5 -391.5c0 -167.333 37.667 -300.166 113 -398.499s176.333 -147.5 303 -147.5c85.333 0 158.333 23.333 219 70
s100.334 111.334 119.001 194.001h291c-10.667 -99.333 -43 -188 -97 -266s-126.167 -139.333 -216.5 -184s-196.166 -67 -317.499 -67c-148.667 0 -276.5 33.833 -383.5 101.5s-189.167 161.167 -246.5 280.5s-86 256 -86 410c0 156.667 29.333 294.667 88 414
s141.5 212.666 248.5 279.999s232.5 101 376.5 101c148.667 0 277.334 -35.333 386.001 -106c34 76.667 86.167 135.334 156.5 176.001s149.833 61 238.5 61c26 0 52 -0.833008 78 -2.5s50 -6.16699 72 -13.5v-226c-12.667 2 -26.167 4 -40.5 6s-29.5 3 -45.5 3
c-62.667 0 -113.167 -14.667 -151.5 -44s-57.5 -82.666 -57.5 -159.999v-210z" />
    <glyph glyph-name="uni0189" unicode="&#x189;" horiz-adv-x="2032" 
d="M888 0l-663 -0.00195312v2048h684c201.333 0 373.833 -40.833 517.5 -122.5s254 -198.667 331 -351s115.5 -334.833 115.5 -547.5c0 -213.333 -38.667 -396.666 -116 -549.999s-189.5 -271.166 -336.5 -353.499s-324.5 -123.5 -532.5 -123.5zM534 269.998h337
c233.333 0 408 65.5 524 196.5s174 317.833 174 560.5c0 241.333 -57.167 426.833 -171.5 556.5s-283.5 194.5 -507.5 194.5h-356v-1508zM-81 959.998v207h919v-207h-919z" />
    <glyph glyph-name="uni018A" unicode="&#x18a;" horiz-adv-x="2524" 
d="M124 1442l0.000976562 157.997c0 128.667 40.667 235.5 122 320.5s196.333 127.5 345 127.5h810c201.333 0 373.833 -40.833 517.5 -122.5s254 -198.667 331 -351s115.5 -334.833 115.5 -547.5c0 -213.333 -38.667 -396.666 -116 -549.999
s-189.5 -271.166 -336.5 -353.499s-324.5 -123.5 -532.5 -123.5h-663v1778h-123c-54 0 -94.333 -11.667 -121 -35s-44.334 -53.666 -53.001 -90.999s-13 -77 -13 -119v-91h-283zM1026 269.997h337c233.333 0 408 65.5 524 196.5s174 317.833 174 560.5
c0 241.333 -57.167 426.833 -171.5 556.5s-283.5 194.5 -507.5 194.5h-356v-1508z" />
    <glyph glyph-name="uni018B" unicode="&#x18b;" horiz-adv-x="1814" 
d="M1649 0h-764.001c-151.333 -0 -280.666 26.333 -387.999 79s-189.333 125.667 -246 219s-85 201 -85 323c0 182.667 63 329.667 189 441s302.667 167 530 167h429v514h-939v273h1274v-2016zM1314 268v690.002h-429c-134 0 -231.167 -32.333 -291.5 -97
s-90.5 -143.334 -90.5 -236.001c0 -94.667 30.167 -177.834 90.5 -249.501s157.5 -107.5 291.5 -107.5h429z" />
    <glyph glyph-name="uni018C" unicode="&#x18c;" horiz-adv-x="1762" 
d="M343 2048l-0.00195312 -249h895v-512h-18c-18 32 -43.167 69 -75.5 111s-77.666 78.833 -135.999 110.5s-134.833 47.5 -229.5 47.5c-124 0 -234.5 -31.333 -331.5 -94s-173.5 -153 -229.5 -271s-84 -260 -84 -426c0 -165.333 27.667 -307.5 83 -426.5
s131.333 -210.167 228 -273.5s207 -95 331 -95c93.333 0 169.333 15.667 228 47s104.834 68 138.501 110s59.5 79.333 77.5 112h25v-239h292v2048h-1194zM1244 768c0 -161.333 -34.668 -292.166 -104.001 -392.499s-168.333 -150.5 -297 -150.5
c-89.333 0 -164.166 23.833 -224.499 71.5s-105.833 112.5 -136.5 194.5s-46 174.333 -46 277c0 102 15.167 193.167 45.5 273.5s75.5 143.833 135.5 190.5s135.333 70 226 70c130.667 0 230.167 -48.833 298.5 -146.5s102.5 -226.834 102.5 -387.501z" />
    <glyph glyph-name="uni018D" unicode="&#x18d;" horiz-adv-x="1628" 
d="M1314 -516l-1024 0.00195312v252h597c-11.333 14 -31.833 34.333 -61.5 61l-98.5 86.5l-102 84.5c-145.333 122.667 -264.166 246.334 -356.499 371.001s-138.5 263.667 -138.5 417v28c0 139.333 26.833 264.166 80.5 374.499s131.5 197.5 233.5 261.5s225.333 96 370 96
c145.333 0 269.166 -31.333 371.499 -94s180.666 -148 234.999 -256s81.5 -230 81.5 -366v-28c0 -114.667 -24.667 -219.334 -74 -314.001s-118.833 -172.834 -208.5 -234.501s-195.834 -100.834 -318.501 -117.501c-11.333 -1.33301 -19.833 -2.16602 -25.5 -2.49902
s-13.5 -0.5 -23.5 -0.5l242.5 -218c87 -78.667 160.167 -151.667 219.5 -219v-182zM1178 756.002l0.00292969 28.001c0 83.333 -12 161 -36 233s-62.5 130.167 -115.5 174.5s-123.833 66.5 -212.5 66.5c-86 0 -155.667 -21.833 -209 -65.5s-92.333 -101.5 -117 -173.5
s-37 -150.333 -37 -235v-28c0 -106.667 24.333 -198.834 73 -276.501s104 -136.167 166 -175.5c27.333 -9.33301 62.666 -14 105.999 -14c89.333 0 162.166 21.5 218.499 64.5s97.666 99.833 123.999 170.5s39.5 147.667 39.5 231z" />
    <glyph glyph-name="uni018E" unicode="&#x18e;" horiz-adv-x="1687" 
d="M1455 2048v-2048h-1284v266h975v624h-908v265h908v627h-987v266h1296z" />
    <glyph glyph-name="uni018F" unicode="&#x18f;" horiz-adv-x="2072" 
d="M1038 -28c-280 0 -491.666 83.502 -634.999 250.502s-215 392.833 -215 677.5v192h1362c-2 121.333 -23.5 231.5 -64.5 330.5s-105.5 177.667 -193.5 236s-203.667 87.5 -347 87.5c-120.667 0 -222.834 -10.833 -306.501 -32.5s-151.5 -42.834 -203.5 -63.501l-69 259
c19.333 11.333 55.333 26.666 108 45.999s119.5 37 200.5 53s173.5 24 277.5 24c202 0 372.5 -41 511.5 -123s244.333 -195 316 -339s107.5 -309.667 107.5 -497v-150c0 -186.667 -37.833 -351.5 -113.5 -494.5s-177.667 -254.833 -306 -335.5s-271.5 -121 -429.5 -121z
M1546 830.002h-1024v-43c0.666992 -99.333 17.334 -189.333 50.001 -270s86.667 -144.667 162 -192s176.666 -71 303.999 -71c100.667 0 187.167 25.333 259.5 76s129.5 119.5 171.5 206.5s67.667 184.833 77 293.5z" />
    <glyph glyph-name="uni0190" unicode="&#x190;" horiz-adv-x="1814" 
d="M1138 1080l0.000976562 -190.004h-232c-132.667 0 -233.5 -25.5 -302.5 -76.5s-103.167 -135.167 -102.5 -252.5c-0.666992 -109.333 37.833 -190.166 115.5 -242.499s180.834 -78.5 309.501 -78.5c121.333 0 216.666 30.5 285.999 91.5s104 135.833 104 224.5h335
c0 -102 -20.833 -189.833 -62.5 -263.5s-97.5 -134.167 -167.5 -181.5s-148 -82.333 -234 -105s-173 -34 -261 -34c-145.333 0 -275.666 20.167 -390.999 60.5s-206.333 103.833 -273 190.5s-100 199 -100 337c0 114.667 30.333 211.334 91 290.001
s146.667 137.334 258 176.001c-97.333 40 -174.5 96.833 -231.5 170.5s-85.5 161.5 -85.5 263.5c0 186 67.167 327.833 201.5 425.5s311.166 146.5 530.499 146.5c126 0 241.667 -22.667 347 -68s189.833 -109.666 253.5 -192.999s95.5 -182.333 95.5 -297h-334
c0 87.333 -34 156.833 -102 208.5s-154.667 77.5 -260 77.5c-138.667 0 -239.5 -28.833 -302.5 -86.5s-94.167 -129.167 -93.5 -214.5c-0.666992 -92.667 28.166 -166.667 86.499 -222s154.833 -83 289.5 -83h232v-74z" />
    <glyph glyph-name="uni0191" unicode="&#x191;" horiz-adv-x="1671" 
d="M246 -138v2186h1270v-266h-961v-624h870v-265h-870v-1034c0 -154 -44.833 -265 -134.5 -333s-210.5 -102 -362.5 -102c-12 0 -25.833 0.5 -41.5 1.5s-38.167 4.16699 -67.5 9.5v245c22 -4 48.333 -6 79 -6c61.333 0 113 13.167 155 39.5s63 75.833 63 148.5z" />
    <glyph glyph-name="uni0192" unicode="&#x192;" horiz-adv-x="1166" 
d="M985 1488l0.000976562 -237.002h-287v-1353c0.666992 -161.333 -39.333 -284.666 -120 -369.999s-195.334 -128 -344.001 -128c-30 0 -58.833 1.33301 -86.5 4s-56.167 8 -85.5 16l20 254c14.667 -5.33301 37.167 -9.33301 67.5 -12s52.5 -4 66.5 -4
c57.333 0 101.666 21.333 132.999 64s46.666 101.334 45.999 176.001v1353h-242v237h242v143c0.666992 165.333 44.5 291.5 131.5 378.5s200.5 130.5 340.5 130.5c40 0 82.333 -3.33301 127 -10s81.334 -14.667 110.001 -24l-54 -251c-14.667 4 -31.5 7.5 -50.5 10.5
s-42.167 4.5 -69.5 4.5c-153.333 0 -230.666 -79.667 -231.999 -239v-143h287z" />
    <glyph glyph-name="uni0193" unicode="&#x193;" horiz-adv-x="2234" 
d="M1928 1401l-317.999 -0.00390625v3c-38.667 120.667 -103.167 215.834 -193.5 285.501s-203.166 104.5 -338.499 104.5c-115.333 0 -219.333 -29.667 -312 -89s-165.834 -146.166 -219.501 -260.499s-80.5 -254.166 -80.5 -419.499c0 -166 27 -306.333 81 -421
s128 -201.667 222 -261s201 -89 321 -89c164 0 296.333 48.5 397 145.5s152.667 228.167 156 393.5h-506v255h805v-233c0 -172 -36.5 -321.167 -109.5 -447.5s-173.5 -223.833 -301.5 -292.5s-275 -103 -441 -103c-184.667 0 -347 42.5 -487 127.5s-249 206.167 -327 363.5
s-117 344 -117 560c0 218 39.667 405.667 119 563s188 278.333 326 363s295.333 127 472 127c116.667 0 225.334 -18.333 326.001 -55s189 -88 265 -154c37.333 78 92.666 137.667 165.999 179s160.666 62 261.999 62c27.333 0 54.666 -0.833008 82 -2.5
c27.333 -1.66699 52.666 -6.16699 76 -13.5v-246c-13.333 2 -27.833 3.83301 -43.5 5.5s-31.5 2.5 -47.5 2.5c-66 0 -122 -13.833 -168 -41.5s-69 -82.167 -69 -163.5v-232c1.33301 -5.33301 2.33301 -10.666 3 -15.999z" />
    <glyph glyph-name="uni0194" unicode="&#x194;" horiz-adv-x="1883" 
d="M58 2036h342.002l540 -1271l542 1271h344l-730 -1636l184.5 -404.5c50.333 -105 75.5 -187.5 75.5 -247.5c0 -114.667 -38.333 -201.334 -115 -260.001s-176.334 -88 -299.001 -88s-223.167 29.333 -301.5 88s-117.5 145.334 -117.5 260.001
c0 62.667 25.667 146.5 77 251.5s113.666 241.5 186.999 409.5zM943.002 59c-34 -76 -60.668 -137.499 -80.001 -184.499s-29 -87.5 -29 -121.5c0 -28 9.33301 -52.167 28 -72.5s45.334 -30.5 80.001 -30.5s61.167 10.833 79.5 32.5s27.5 45.167 27.5 70.5
c0 33.333 -8.83301 73.166 -26.5 119.499s-44.167 108.5 -79.5 186.5z" />
    <glyph glyph-name="uni0195" unicode="&#x195;" horiz-adv-x="2698" 
d="M201 0v2048h295v-762h19c36 83.333 91 149.166 165 197.499s170.667 72.5 290 72.5c158 0 285.167 -48.667 381.5 -146s144.5 -241.666 144.5 -432.999v-372c0 -103.333 14.167 -182.166 42.5 -236.499s63 -91.333 104 -111s80.5 -29.5 118.5 -29.5
c82 0 156 37.167 222 111.5s118.333 193.166 157 356.499s58 378.333 58 645v195h300v-195c0 -318 -31 -577.833 -93 -779.5s-149.5 -350.334 -262.5 -446.001s-245.5 -143.5 -397.5 -143.5c-160.667 0 -292.167 52 -394.5 156s-153.5 263 -153.5 477v336
c0 112.667 -29 200.167 -87 262.5s-138.667 93.5 -242 93.5c-106.667 0 -194.667 -33.5 -264 -100.5s-104 -161.833 -104 -284.5v-912h-299z" />
    <glyph glyph-name="uni0196" unicode="&#x196;" horiz-adv-x="1037" 
d="M486 2112v-1631c0 -77.333 19.667 -138.333 59 -183s97 -67 173 -67c26.667 0 50 1.5 70 4.5s38.333 6.5 55 10.5l32 -246c-34 -8 -68.333 -14.667 -103 -20s-68.667 -8 -102 -8c-158.667 0 -283 44 -373 132s-135 213.667 -135 377v1631h324z" />
    <glyph glyph-name="uni0197" unicode="&#x197;" horiz-adv-x="759" 
d="M534 2048v-2048h-309v2048h309zM-81 960v207h919v-207h-919z" />
    <glyph glyph-name="uni0198" unicode="&#x198;" horiz-adv-x="1946" 
d="M225 0l0.000976562 2048h309v-971h25l766 834c88.667 95.333 186.167 148.5 292.5 159.5s208.166 -15.5 305.499 -79.5l-113 -225c-48 28.667 -94 38.5 -138 29.5s-90.667 -39.833 -140 -92.5l-550 -586l855 -1117h-373l-675 900l-255 -282v-618h-309z" />
    <glyph glyph-name="uni0199" unicode="&#x199;" horiz-adv-x="1542" 
d="M1167 0l-494.999 663.999l-172 -187v-477h-299v1641c0 102.667 20.5 186 61.5 250s95 110.833 162 140.5s139.833 44.5 218.5 44.5c31.333 0 61.166 -0.833008 89.499 -2.5s52.833 -5.16699 73.5 -10.5v-241c-12 2 -25.333 3.83301 -40 5.5s-29.667 2.5 -45 2.5
c-60.667 0 -112.667 -13.167 -156 -39.5s-65 -76.166 -65 -149.499v-746h20l572 641h366l-596 -656l650 -880h-345z" />
    <glyph glyph-name="uni019A" unicode="&#x19a;" horiz-adv-x="701" 
d="M500 2048v-2048h-299v2048h299zM-108 960v207h919v-207h-919z" />
    <glyph glyph-name="uni019B" unicode="&#x19b;" horiz-adv-x="1811" 
d="M994 1930l-0.00195312 -246.998l-58 -21l511 -1291c17.333 -42 36 -73.333 56 -94s46.333 -31 79 -31h48l6 -257c-30 -9.33301 -71.333 -14 -124 -14c-93.333 0 -168.166 19.167 -224.499 57.5s-106.833 115.166 -151.5 230.499l-279 729l-352 -992h-354l537 1426
l-54 128l-359 -128v246l266 96c-17.333 27.333 -37.5 46.666 -60.5 57.999s-49.833 17 -80.5 17c-8.66699 0 -19.667 -0.166992 -33 -0.5s-25.666 -1.5 -36.999 -3.5l-4 243c18.667 6 45.667 10.833 81 14.5s64.666 5.5 87.999 5.5c100.667 0 177.834 -19.5 231.501 -58.5
s95.167 -93.833 124.5 -164.5z" />
    <glyph glyph-name="uni019C" unicode="&#x19c;" horiz-adv-x="2591" 
d="M1196 231c-45.333 -80.667 -107.168 -143.997 -185.501 -189.997s-174.833 -69 -289.5 -69c-103.333 0 -192 20 -266 60s-130.667 105.833 -170 197.5s-59 215.167 -59 370.5v1404h323v-1404c0 -94.667 11.333 -168.334 34 -221.001s52.334 -89.5 89.001 -110.5
s76.334 -31.5 119.001 -31.5c98 0 174.833 22.333 230.5 67s95.167 104 118.5 178c-3.33301 37.333 -5 76.666 -5 117.999v1404h320v-1404c0 -94.667 11.667 -168.334 35 -221.001s53.666 -89.5 90.999 -110.5s77.333 -31.5 120 -31.5c96.667 0 172.5 22 227.5 66
s93.833 102.333 116.5 175v1526h321v-2004h-300l-11 162c-46.667 -60 -105.167 -106.667 -175.5 -140s-153.5 -50 -249.5 -50c-99.333 0 -186.5 19.667 -261.5 59s-132.5 106 -172.5 200z" />
    <glyph glyph-name="uni019D" unicode="&#x19d;" horiz-adv-x="2112" 
d="M1887 2048v-2048h-284l-1041 1502h-19v-1643c0 -102.667 -21 -186 -63 -250s-97 -110.833 -165 -140.5s-141.667 -44.5 -221 -44.5c-24.667 0 -52 0.5 -82 1.5s-55 4.16699 -75 9.5v245c22 -4 48.333 -6 79 -6c61.333 0 113 13.167 155 39.5s63 75.833 63 148.5v2186h286
l1042 -1504h19v1504h306z" />
    <glyph glyph-name="uni019E" unicode="&#x19e;" horiz-adv-x="1682" 
d="M500 912v-911.999h-299v1536h287v-250h19c35.333 82 91 147.5 167 196.5s171.333 73.5 286 73.5c157.333 0 283.833 -48.833 379.5 -146.5s143.5 -241.834 143.5 -432.501v-1553h-299v1517c0 111.333 -28.833 198.5 -86.5 261.5s-137.5 94.5 -239.5 94.5
c-102.667 0 -188 -33.5 -256 -100.5s-102 -161.833 -102 -284.5z" />
    </font>
</defs>
</svg>
